<?xml version="1.0" standalone="no"?>
<!--
Font Awesome Pro 5.8.0 by @fontawesome - //fontawesome.com
License - //fontawesome.com/license (Commercial License)
-->
<!DOCTYPE svg PUBLIC "-//W3C//DTD SVG 1.1//EN" "//www.w3.org/Graphics/SVG/1.1/DTD/svg11.dtd" >
<svg xmlns="//www.w3.org/2000/svg" xmlns:xlink="//www.w3.org/1999/xlink" version="1.1">
<metadata>
Created by FontForge 20190112 at Tue Mar 19 17:20:00 2019
 By Robert Madole
Copyright (c) Font Awesome
</metadata>
<defs>
<font id="FontAwesome5Pro-Regular" horiz-adv-x="512" >
  <font-face 
    font-family="Font Awesome 5 Pro Regular"
    font-weight="400"
    font-stretch="normal"
    units-per-em="512"
    panose-1="2 0 5 3 0 0 0 0 0 0"
    ascent="448"
    descent="-64"
    bbox="-0.242977 -64.2656 640.2 448.112"
    underline-thickness="25"
    underline-position="-51"
    unicode-range="U+0020-F83E"
  />
    <missing-glyph />
    <glyph glyph-name="glass-martini" unicode="&#xf000;" 
d="M502.05 390.4l-222.05 -222.04v-183.36h64c22.0898 0 40 -17.9102 40 -40c0 -4.41992 -3.58008 -8 -8 -8h-240c-4.41992 0 -8 3.58008 -8 8c0 22.0898 17.9102 40 40 40h64v183.36l-222.05 222.04c-21.25 21.2598 -6.2002 57.5996 23.8496 57.5996h444.4
c30.0498 0 45.0996 -36.3398 23.8496 -57.5996zM256 212.24l187.76 187.76h-375.529z" />
    <glyph glyph-name="music" unicode="&#xf001;" 
d="M511.99 80.0801c0 -0.0302734 0.00976562 -0.0498047 0.0195312 -0.0800781c0 -0.219727 -0.0800781 -0.429688 -0.0800781 -0.650391c-0.0498047 -2.88965 -0.379883 -5.62988 -1 -8.21973c-5.37012 -39.9502 -45.5596 -71.1299 -94.9297 -71.1299
c-53.0195 0 -96 35.8203 -96 80s42.9805 80 96 80c17.5703 0 33.8301 -4.23047 47.9902 -11.0898v128.99l-272 -85.9004v-176c0 -0.0898438 -0.0302734 -0.179688 -0.0302734 -0.269531c-0.0195312 -3.05078 -0.389648 -5.9209 -1.04004 -8.63086
c-5.37012 -39.9395 -45.5596 -71.0996 -94.9199 -71.0996c-53.0195 0 -96 35.8203 -96 80s42.9805 80 96 80c17.5801 0 33.8301 -4.23047 48 -11.0996v235.1c0 14 9.09961 26.29 22.3896 30.4902l304 96c3.24023 1.0293 6.49023 1.50977 9.66992 1.50977
c16.9707 0 31.9307 -13.7402 31.9307 -32.0098v-335.91zM96 -16c28.29 0 48 16.8604 48 32s-19.71 32 -48 32s-48 -16.8604 -48 -32c0 -15.1299 19.71 -32 48 -32zM463.99 328.23v65.8994l-271.99 -85.8896v-65.9004zM464 79.9902
c-0.00976562 15.1406 -19.7197 32.0098 -48 32.0098c-28.29 0 -48 -16.8604 -48 -32c0 -15.1299 19.71 -32 48 -32c28.2803 0 47.9902 16.8604 48 31.9902z" />
    <glyph glyph-name="search" unicode="&#xf002;" 
d="M508.5 -20.9004c4.7002 -4.69922 4.7002 -12.2998 0 -17l-22.5996 -22.5996c-4.7002 -4.7002 -12.3008 -4.7002 -17 0l-121.4 121.4c-2.2002 2.2998 -3.5 5.2998 -3.5 8.5v13.1992c-36.5 -31.5 -84 -50.5996 -136 -50.5996c-114.9 0 -208 93.0996 -208 208
s93.0996 208 208 208s208 -93.0996 208 -208c0 -52 -19.0996 -99.5 -50.5996 -136h13.1992c3.2002 0 6.2002 -1.2002 8.5 -3.5zM208 80c88.4004 0 160 71.5996 160 160s-71.5996 160 -160 160s-160 -71.5996 -160 -160s71.5996 -160 160 -160z" />
    <glyph glyph-name="heart" unicode="&#xf004;" 
d="M458.4 383.7c75.2998 -63.4004 64.0996 -166.601 10.5996 -221.3l-175.4 -178.7c-10 -10.2002 -23.2998 -15.7998 -37.5996 -15.7998c-14.2002 0 -27.5996 5.69922 -37.5996 15.8994l-175.4 178.7c-53.5996 54.7002 -64.5996 157.9 10.5996 221.2
c57.8008 48.7002 147.101 41.2998 202.4 -15c55.2998 56.2998 144.6 63.5996 202.4 15zM434.8 196.2c36.2002 36.8994 43.7998 107.7 -7.2998 150.8c-38.7002 32.5996 -98.7002 27.9004 -136.5 -10.5996l-35 -35.7002l-35 35.7002
c-37.5996 38.2998 -97.5996 43.1992 -136.5 10.5c-51.2002 -43.1006 -43.7998 -113.5 -7.2998 -150.7l175.399 -178.7c2.40039 -2.40039 4.40039 -2.40039 6.80078 0z" />
    <glyph glyph-name="star" unicode="&#xf005;" horiz-adv-x="576" 
d="M528.1 276.5c26.2002 -3.7998 36.7002 -36.0996 17.7002 -54.5996l-105.7 -103l25 -145.5c4.5 -26.3008 -23.1992 -45.9004 -46.3994 -33.7002l-130.7 68.7002l-130.7 -68.7002c-23.2002 -12.2998 -50.8994 7.39941 -46.3994 33.7002l25 145.5l-105.7 103
c-19 18.5 -8.5 50.7998 17.7002 54.5996l146.1 21.2998l65.2998 132.4c11.7998 23.8994 45.7002 23.5996 57.4004 0l65.2998 -132.4zM388.6 135.7l100.601 98l-139 20.2002l-62.2002 126l-62.2002 -126l-139 -20.2002l100.601 -98l-23.7002 -138.4l124.3 65.2998
l124.3 -65.2998z" />
    <glyph glyph-name="user" unicode="&#xf007;" horiz-adv-x="448" 
d="M313.6 144c74.2002 0 134.4 -60.2002 134.4 -134.4v-25.5996c0 -26.5 -21.5 -48 -48 -48h-352c-26.5 0 -48 21.5 -48 48v25.5996c0 74.2002 60.2002 134.4 134.4 134.4c28.7998 0 42.5 -16 89.5996 -16s60.9004 16 89.5996 16zM400 -16v25.5996
c0 47.6006 -38.7998 86.4004 -86.4004 86.4004c-14.6992 0 -37.8994 -16 -89.5996 -16c-51.2998 0 -75 16 -89.5996 16c-47.6006 0 -86.4004 -38.7998 -86.4004 -86.4004v-25.5996h352zM224 160c-79.5 0 -144 64.5 -144 144s64.5 144 144 144s144 -64.5 144 -144
s-64.5 -144 -144 -144zM224 400c-52.9004 0 -96 -43.0996 -96 -96s43.0996 -96 96 -96s96 43.0996 96 96s-43.0996 96 -96 96z" />
    <glyph glyph-name="film" unicode="&#xf008;" 
d="M488 384c13.2998 0 24 -10.7002 24 -24v-336c0 -13.2998 -10.7002 -24 -24 -24h-8v20c0 6.59961 -5.40039 12 -12 12h-40c-6.59961 0 -12 -5.40039 -12 -12v-20h-320v20c0 6.59961 -5.40039 12 -12 12h-40c-6.59961 0 -12 -5.40039 -12 -12v-20h-8
c-13.2998 0 -24 10.7002 -24 24v336c0 13.2998 10.7002 24 24 24h8v-20c0 -6.59961 5.40039 -12 12 -12h40c6.59961 0 12 5.40039 12 12v20h320v-20c0 -6.59961 5.40039 -12 12 -12h40c6.59961 0 12 5.40039 12 12v20h8zM96 76v40c0 6.59961 -5.40039 12 -12 12h-40
c-6.59961 0 -12 -5.40039 -12 -12v-40c0 -6.59961 5.40039 -12 12 -12h40c6.59961 0 12 5.40039 12 12zM96 172v40c0 6.59961 -5.40039 12 -12 12h-40c-6.59961 0 -12 -5.40039 -12 -12v-40c0 -6.59961 5.40039 -12 12 -12h40c6.59961 0 12 5.40039 12 12zM96 268v40
c0 6.59961 -5.40039 12 -12 12h-40c-6.59961 0 -12 -5.40039 -12 -12v-40c0 -6.59961 5.40039 -12 12 -12h40c6.59961 0 12 5.40039 12 12zM384 60v96c0 6.59961 -5.40039 12 -12 12h-232c-6.59961 0 -12 -5.40039 -12 -12v-96c0 -6.59961 5.40039 -12 12 -12h232
c6.59961 0 12 5.40039 12 12zM384 228v96c0 6.59961 -5.40039 12 -12 12h-232c-6.59961 0 -12 -5.40039 -12 -12v-96c0 -6.59961 5.40039 -12 12 -12h232c6.59961 0 12 5.40039 12 12zM480 76v40c0 6.59961 -5.40039 12 -12 12h-40c-6.59961 0 -12 -5.40039 -12 -12v-40
c0 -6.59961 5.40039 -12 12 -12h40c6.59961 0 12 5.40039 12 12zM480 172v40c0 6.59961 -5.40039 12 -12 12h-40c-6.59961 0 -12 -5.40039 -12 -12v-40c0 -6.59961 5.40039 -12 12 -12h40c6.59961 0 12 5.40039 12 12zM480 268v40c0 6.59961 -5.40039 12 -12 12h-40
c-6.59961 0 -12 -5.40039 -12 -12v-40c0 -6.59961 5.40039 -12 12 -12h40c6.59961 0 12 5.40039 12 12z" />
    <glyph glyph-name="th-large" unicode="&#xf009;" 
d="M0 368c0 26.5098 21.4902 48 48 48h416c26.5098 0 48 -21.4902 48 -48v-352c0 -26.5098 -21.4902 -48 -48 -48h-416c-26.5098 0 -48 21.4902 -48 48v352zM232 368h-178c-3.31152 0 -6 -2.68848 -6 -6v-146h184v152zM48 168v-146c0 -3.31152 2.68848 -6 6 -6h178v152h-184
zM280 16h178c3.31152 0 6 2.68848 6 6v146h-184v-152zM464 216v146c0 3.31152 -2.68848 6 -6 6h-178v-152h184z" />
    <glyph glyph-name="th" unicode="&#xf00a;" 
d="M464 416c26.5 0 48 -21.5 48 -48v-352c0 -26.5 -21.5 -48 -48 -48h-416c-26.5 0 -48 21.5 -48 48v352c0 26.5 21.5 48 48 48h416zM197.3 376v-96h117.3v96h-117.3zM197.3 240v-96h117.3v96h-117.3zM157.3 8v96h-117.3v-84c0 -6.59961 5.40039 -12 12 -12h105.3z
M157.3 144v96h-117.3v-96h117.3zM157.3 280v96h-105.3c-6.59961 0 -12 -5.40039 -12 -12v-84h117.3zM314.7 8h-0.100586v96h-117.3v-96h117.4zM472 8v96h-117.3v-96h117.3zM472 144v96h-117.3v-96h117.3zM472 280v96h-117.3v-96h117.3z" />
    <glyph glyph-name="th-list" unicode="&#xf00b;" 
d="M0 368c0 26.5098 21.4902 48 48 48h416c26.5098 0 48 -21.4902 48 -48v-352c0 -26.5098 -21.4902 -48 -48 -48h-416c-26.5098 0 -48 21.4902 -48 48v352zM472 144v96h-274.667v-96h274.667zM472 104h-274.667v-96h262.667c6.62695 0 12 5.37305 12 12v84zM40 240v-96
h117.333v96h-117.333zM197.333 280h274.667v84c0 6.62695 -5.37305 12 -12 12h-262.667v-96zM157.333 376h-105.333c-6.62695 0 -12 -5.37305 -12 -12v-84h117.333v96zM40 104v-84c0 -6.62695 5.37305 -12 12 -12h105.333v96h-117.333z" />
    <glyph glyph-name="check" unicode="&#xf00c;" 
d="M435.848 364.534c4.68652 4.68555 12.2842 4.68555 16.9707 0l28.2832 -28.2842c4.68652 -4.68652 4.68652 -12.2852 0 -16.9707l-299.812 -299.813c-4.6875 -4.68555 -12.2852 -4.68555 -16.9707 0l-133.421 133.421c-4.68652 4.6875 -4.68652 12.2852 0 16.9717
l28.2832 28.2832c4.6875 4.68652 12.2852 4.68652 16.9717 0l96.6514 -96.6514z" />
    <glyph glyph-name="times" unicode="&#xf00d;" horiz-adv-x="320" 
d="M207.6 192l107.73 -107.71c6.22949 -6.24023 6.22949 -16.3496 0 -22.5801l-25.0303 -25.0303c-6.24023 -6.22949 -16.3496 -6.22949 -22.5801 0l-107.72 107.721l-107.71 -107.73c-6.24023 -6.22949 -16.3496 -6.22949 -22.5801 0l-25.0303 25.0303
c-6.22949 6.24023 -6.22949 16.3496 0 22.5801l107.721 107.72l-107.721 107.72c-6.22949 6.24023 -6.22949 16.3506 0 22.5801l25.0205 25.0205c6.24023 6.22949 16.3496 6.22949 22.5801 0l107.72 -107.721l107.71 107.73c6.24023 6.22949 16.3496 6.22949 22.5801 0
l25.0303 -25.0303c6.22949 -6.24023 6.22949 -16.3496 0 -22.5801z" />
    <glyph glyph-name="search-plus" unicode="&#xf00e;" 
d="M312 252v-24c0 -6.59961 -5.40039 -12 -12 -12h-68v-68c0 -6.59961 -5.40039 -12 -12 -12h-24c-6.59961 0 -12 5.40039 -12 12v68h-68c-6.59961 0 -12 5.40039 -12 12v24c0 6.59961 5.40039 12 12 12h68v68c0 6.59961 5.40039 12 12 12h24c6.59961 0 12 -5.40039 12 -12
v-68h68c6.59961 0 12 -5.40039 12 -12zM508.5 -37.9004l-22.5996 -22.5996c-4.7002 -4.7002 -12.3008 -4.7002 -17 0l-121.4 121.4c-2.2998 2.2998 -3.5 5.2998 -3.5 8.5v13.1992c-36.5 -31.5 -84 -50.5996 -136 -50.5996c-114.9 0 -208 93.0996 -208 208
s93.0996 208 208 208s208 -93.0996 208 -208c0 -52 -19.0996 -99.5 -50.5996 -136h13.1992c3.2002 0 6.2002 -1.2998 8.5 -3.5l121.4 -121.4c4.7002 -4.69922 4.7002 -12.2998 0 -17zM368 240c0 88.4004 -71.5996 160 -160 160s-160 -71.5996 -160 -160
s71.5996 -160 160 -160s160 71.5996 160 160z" />
    <glyph glyph-name="search-minus" unicode="&#xf010;" 
d="M312 252v-24c0 -6.59961 -5.40039 -12 -12 -12h-184c-6.59961 0 -12 5.40039 -12 12v24c0 6.59961 5.40039 12 12 12h184c6.59961 0 12 -5.40039 12 -12zM508.5 -37.9004l-22.5996 -22.5996c-4.7002 -4.7002 -12.3008 -4.7002 -17 0l-121.4 121.4
c-2.2998 2.2998 -3.5 5.2998 -3.5 8.5v13.1992c-36.5 -31.5 -84 -50.5996 -136 -50.5996c-114.9 0 -208 93.0996 -208 208s93.0996 208 208 208s208 -93.0996 208 -208c0 -52 -19.0996 -99.5 -50.5996 -136h13.1992c3.2002 0 6.2002 -1.2998 8.5 -3.5l121.4 -121.4
c4.7002 -4.69922 4.7002 -12.2998 0 -17zM368 240c0 88.4004 -71.5996 160 -160 160s-160 -71.5996 -160 -160s71.5996 -160 160 -160s160 71.5996 160 160z" />
    <glyph glyph-name="power-off" unicode="&#xf011;" 
d="M388.5 401.7c69.4004 -44 115.5 -121.5 115.5 -209.7c0 -136.8 -110.8 -247.7 -247.5 -248c-136.5 -0.299805 -248.3 111 -248.5 247.6c-0.0996094 88.4004 46 166.101 115.5 210.101c5.7998 3.7002 13.5 1.7998 16.9004 -4.2002l11.7998 -20.9004
c3.09961 -5.5 1.39941 -12.5 -3.90039 -15.8994c-55.5 -35.6006 -92.2998 -97.7998 -92.2998 -168.7c0 -110.5 89.5 -200 200 -200s200 89.5 200 200c0 70.9004 -36.7998 133.1 -92.2998 168.6c-5.2998 3.40039 -7 10.4004 -3.90039 15.9004l11.7998 20.9004
c3.30078 6.09961 11.1006 7.89941 16.9004 4.2998zM280 172c0 -6.59961 -5.40039 -12 -12 -12h-24c-6.59961 0 -12 5.40039 -12 12v264c0 6.59961 5.40039 12 12 12h24c6.59961 0 12 -5.40039 12 -12v-264z" />
    <glyph glyph-name="signal" unicode="&#xf012;" horiz-adv-x="640" 
d="M208 160c8.83984 0 16 -7.16016 16 -16v-192c0 -8.83984 -7.16016 -16 -16 -16h-32c-8.83984 0 -16 7.16016 -16 16v192c0 8.83984 7.16016 16 16 16h32zM80 64c8.83984 0 16 -7.16016 16 -16v-96c0 -8.83984 -7.16016 -16 -16 -16h-32c-8.83984 0 -16 7.16016 -16 16v96
c0 8.83984 7.16016 16 16 16h32zM336 256c8.83984 0 16 -7.16016 16 -16v-288c0 -8.83984 -7.16016 -16 -16 -16h-32c-8.83984 0 -16 7.16016 -16 16v288c0 8.83984 7.16016 16 16 16h32zM464 352c8.83984 0 16 -7.16016 16 -16v-384c0 -8.83984 -7.16016 -16 -16 -16h-32
c-8.83984 0 -16 7.16016 -16 16v384c0 8.83984 7.16016 16 16 16h32zM592 448c8.83984 0 16 -7.16016 16 -16v-480c0 -8.83984 -7.16016 -16 -16 -16h-32c-8.83984 0 -16 7.16016 -16 16v480c0 8.83984 7.16016 16 16 16h32z" />
    <glyph glyph-name="cog" unicode="&#xf013;" 
d="M452.515 211c1.2207 -12.6504 1.2207 -25.3496 0 -38l31.8438 -18.3818c9.42578 -5.44141 13.9951 -16.542 11.1768 -27.0537c-11.4043 -42.5312 -33.8418 -80.5479 -64.0586 -110.798c-7.67969 -7.6875 -19.5742 -9.24512 -28.9844 -3.81055l-31.7852 18.3584
c-8.56934 -6.13281 -23.3086 -14.6533 -32.8994 -19.0195v-36.7529c0 -10.8848 -7.32422 -20.4082 -17.8438 -23.2061c-41.8125 -11.1211 -86.1689 -11.1055 -127.93 0.000976562c-9.84766 2.62012 -17.8408 13.0156 -17.8418 23.2061v36.7529
c-9.59082 4.36621 -24.3301 12.8867 -32.8994 19.0195l-31.7852 -18.3584c-9.41016 -5.43457 -21.3047 -3.87695 -28.9844 3.81055c-30.2168 30.25 -52.6543 68.2666 -64.0586 110.798c-2.81836 10.5117 1.75098 21.6123 11.1768 27.0537l31.8438 18.3818
c-0.505859 5.23145 -0.915039 13.7432 -0.915039 19c0 5.25586 0.40918 13.7676 0.915039 18.999l-31.8438 18.3828c-9.42578 5.44141 -13.9951 16.542 -11.1768 27.0537c11.4043 42.5322 33.8418 80.5479 64.0586 110.798c7.67969 7.6875 19.5742 9.24609 28.9844 3.81055
l31.7852 -18.3584c8.56934 6.13281 23.3086 14.6543 32.8994 19.0205v36.7529c0 10.8848 7.32422 20.4082 17.8438 23.2061c41.8125 11.1201 86.1689 11.1064 127.93 -0.000976562c9.84766 -2.62012 17.8408 -13.0156 17.8418 -23.2061v-36.7529
c9.59082 -4.36621 24.3301 -12.8877 32.8994 -19.0205l31.7852 18.3584c9.41016 5.43457 21.3047 3.87695 28.9844 -3.81055c30.2168 -30.25 52.6543 -68.2666 64.0586 -110.798c2.81836 -10.5117 -1.75098 -21.6123 -11.1768 -27.0537zM399.836 147.981
c7.63379 41.3184 7.63086 46.7363 0 88.0361l43.8193 25.2891c-6.57422 17.7559 -21.7383 43.9766 -33.8496 58.5293l-43.8291 -25.3086c-31.9717 27.3867 -36.6631 30.0791 -76.168 44.0283v50.5996c-9.26367 1.58105 -24.4102 2.86426 -33.8086 2.86426
s-24.5449 -1.2832 -33.8086 -2.86426v-50.5986c-39.5088 -13.9502 -44.1846 -16.6318 -76.168 -44.0283l-43.8291 25.3086c-14.5391 -17.4795 -25.999 -37.2998 -33.8496 -58.5293l43.8193 -25.2891c-7.63379 -41.3184 -7.62988 -46.7383 0 -88.0371l-43.8193 -25.2891
c6.57422 -17.7549 21.7393 -43.9756 33.8496 -58.5283l43.8291 25.3086c31.9717 -27.3867 36.6631 -30.0791 76.168 -44.0283v-50.5996c9.26367 -1.58105 24.4102 -2.86426 33.8086 -2.86426s24.5449 1.2832 33.8086 2.86426v50.5996
c39.5098 13.9521 44.1846 16.6318 76.168 44.0283l43.8291 -25.3086c12.1113 14.5527 27.2754 40.7734 33.8496 58.5283zM256 288c52.9346 0 96 -43.0654 96 -96s-43.0654 -96 -96 -96s-96 43.0654 -96 96s43.0654 96 96 96zM256 144c26.4678 0 48 21.5322 48 48
c0 26.4668 -21.5322 48 -48 48s-48 -21.5332 -48 -48c0 -26.4678 21.5322 -48 48 -48z" />
    <glyph glyph-name="home" unicode="&#xf015;" horiz-adv-x="576" 
d="M570.24 200.59c3.19336 -2.64844 5.78516 -8.16602 5.78516 -12.3145c0 -3.21094 -1.67383 -7.81445 -3.73535 -10.2754l-10.2305 -12.29c-2.64746 -3.16113 -8.14258 -5.72656 -12.2656 -5.72656c-3.20605 0 -7.80469 1.66992 -10.2637 3.72656l-27.5303 22.6201
v-186.57c-0.168945 -17.4941 -14.5049 -31.7227 -32 -31.7598h-128c-17.6143 0.0498047 -31.9502 14.3857 -32 32v104h-64v-104c-0.0498047 -17.6143 -14.3857 -31.9502 -32 -32h-128c-17.6143 0.0498047 -31.9502 14.3857 -32 32v186.31l-27.4697 -22.5596
c-2.45996 -2.05664 -7.05859 -3.72656 -10.2646 -3.72656c-4.12305 0 -9.61816 2.56543 -12.2656 5.72656l-10.2402 12.2998c-2.05957 2.46094 -3.73047 7.06152 -3.73047 10.2705c0 4.125 2.56738 9.62207 5.73047 12.2695l246.37 202.41
c8.60449 7.16406 24.6738 12.9775 35.8701 12.9775s27.2656 -5.81348 35.8701 -12.9775l140.18 -115.1v56.2197c0.0654297 4.32324 3.62695 7.85352 7.9502 7.87988h32c4.41602 0 8 -3.58398 8 -8v-95.5195zM463.85 16l0.150391 209.79l-176 144.56l-176 -144.619v-209.73
h96v104c0.0498047 17.6143 14.3857 31.9502 32 32h96c17.6143 -0.0498047 31.9502 -14.3857 32 -32v-104h95.8496z" />
    <glyph glyph-name="clock" unicode="&#xf017;" 
d="M256 440c137 0 248 -111 248 -248s-111 -248 -248 -248s-248 111 -248 248s111 248 248 248zM256 -8c110.5 0 200 89.5 200 200s-89.5 200 -200 200s-200 -89.5 -200 -200s89.5 -200 200 -200zM317.8 96.4004l-84.8994 61.6992
c-3.10059 2.30078 -4.90039 5.90039 -4.90039 9.7002v164.2c0 6.59961 5.40039 12 12 12h32c6.59961 0 12 -5.40039 12 -12v-141.7l66.7998 -48.5996c5.40039 -3.90039 6.5 -11.4004 2.60059 -16.7998l-18.8008 -25.9004c-3.89941 -5.2998 -11.3994 -6.5 -16.7998 -2.59961z
" />
    <glyph glyph-name="road" unicode="&#xf018;" horiz-adv-x="576" 
d="M267.73 256c-7.12012 0 -12.6807 6.16992 -11.9404 13.2598l4.59961 43.5801c0.430664 4.07031 3.87012 7.16016 7.95996 7.16016h39.29h0.00488281c3.97363 0 7.53809 -3.20801 7.95508 -7.16016l4.60059 -43.5801c0.75 -7.08984 -4.7998 -13.2598 -11.9307 -13.2598
h-40.5391zM260.36 144c-9.5 0 -16.9102 8.23047 -15.9102 17.6797l5.06934 48c0.860352 8.14062 7.7207 14.3203 15.9102 14.3203h45.1504c8.18945 0 15.0498 -6.17969 15.9102 -14.3203l5.06934 -48c1 -9.44922 -6.40918 -17.6797 -15.9092 -17.6797h-55.29zM273.42 352
c-4.75 0 -8.4502 4.12012 -7.95996 8.83984l1.69043 16c0.429688 4.07031 3.86914 7.16016 7.95996 7.16016h25.7793h0.00488281c3.97363 0 7.53809 -3.20801 7.95508 -7.16016l1.69043 -16c0.490234 -4.71973 -3.20996 -8.83984 -7.95996 -8.83984h-29.1602zM322.4 112
c8.18945 0 15.0498 -6.17969 15.8994 -14.3203l8.4502 -80c1 -9.44922 -6.41016 -17.6797 -15.9102 -17.6797h-85.6895c-9.5 0 -16.9102 8.23047 -15.9102 17.6797l8.4502 80c0.859375 8.14062 7.71973 14.3203 15.9092 14.3203h68.8008zM173.35 384
c5.33008 0 9.16992 -5.12012 7.68066 -10.2402l-105.65 -362.24c-1.99023 -6.8291 -8.25 -11.5195 -15.3604 -11.5195h-44c-11.4199 0 -19.1592 11.6201 -14.7695 22.1504l148.72 356.93c1.13086 2.71582 4.43555 4.91992 7.37695 4.91992h0.00292969h16zM574.75 22.1504
c4.38965 -10.5303 -3.34961 -22.1504 -14.7598 -22.1504h-44h-0.00292969c-6.62402 0 -13.5039 5.16113 -15.3574 11.5195l-105.649 362.24c-1.49023 5.12012 2.34961 10.2402 7.67969 10.2402h16c2.94141 -0.000976562 6.24707 -2.20508 7.37988 -4.91992z" />
    <glyph glyph-name="download" unicode="&#xf019;" horiz-adv-x="576" 
d="M528 160c26.5 0 48 -21.5 48 -48v-128c0 -26.5 -21.5 -48 -48 -48h-480c-26.5 0 -48 21.5 -48 48v128c0 26.5 21.5 48 48 48h92.2998l-46.0996 46.0996c-30.2998 30.2002 -8.7002 81.9004 33.8994 81.9004h64v112c0 26.5 21.5 48 48 48h96c26.5 0 48 -21.5 48 -48v-112
h64c42.7002 0 64 -51.7998 33.9004 -81.9004l-46.0996 -46.0996h92.0996zM128 240l160 -160l160 160h-112v160h-96v-160h-112zM528 -16v128h-140.2l-65.8994 -65.9004c-18.8008 -18.6992 -49.1006 -18.7998 -67.9004 0l-65.9004 65.9004h-140.1v-128h480zM440 48
c0 13.2998 10.7002 24 24 24s24 -10.7002 24 -24s-10.7002 -24 -24 -24s-24 10.7002 -24 24z" />
    <glyph glyph-name="inbox" unicode="&#xf01c;" horiz-adv-x="576" 
d="M567.403 212.358c5.59668 -8.04688 8.59668 -17.6113 8.59668 -27.4121v-136.946c0 -26.5098 -21.4902 -48 -48 -48h-480c-26.5098 0 -48 21.4902 -48 48v136.946c0 8.30957 3.85156 20.5898 8.59668 27.4121l105.08 151.053
c7.90625 11.3652 25.5596 20.5889 39.4033 20.5889h0.000976562h269.838h0.000976562c13.8438 0 31.4971 -9.22363 39.4033 -20.5889zM153.081 336l-77.9131 -112h122.498l32 -64h116.668l32 64h122.498l-77.9131 112h-269.838zM528 48v128h-120l-32 -64h-176l-32 64h-120
v-128h480z" />
    <glyph glyph-name="redo" unicode="&#xf01e;" 
d="M500 440c6.62695 0 12 -5.37305 12 -12v-192c0 -6.62695 -5.37305 -12 -12 -12h-192c-6.62695 0 -12 5.37305 -12 12v27.71c0 6.74023 5.54883 12.1572 12.2861 11.9971l126.389 -3.00879c-30.7334 68.0195 -99.1299 115.302 -178.675 115.302
c-108.338 0 -196 -87.6777 -196 -196c0 -108.338 87.6777 -196 196 -196c50.1055 0 95.7871 18.7539 130.421 49.6309c4.74805 4.2334 12.0029 3.94629 16.501 -0.551758l19.7383 -19.7383c4.87207 -4.87207 4.63086 -12.8145 -0.482422 -17.4326
c-43.9756 -39.7217 -102.252 -63.9082 -166.178 -63.9082c-136.835 0 -247.786 110.819 -248 247.604c-0.212891 136.388 110.82 247.969 247.207 248.396c86.5811 0.270508 162.868 -43.833 207.432 -110.853l-2.34668 98.5674
c-0.160156 6.73828 5.25781 12.2861 11.9971 12.2861h27.7109z" />
    <glyph glyph-name="sync" unicode="&#xf021;" 
d="M500 440c6.62695 0 12 -5.37305 12 -12v-192c0 -6.62695 -5.37305 -12 -12 -12h-192c-6.62695 0 -12 5.37305 -12 12v27.71c0 6.74023 5.54883 12.1572 12.2861 11.9971l126.39 -3.00879c-30.7334 68.0195 -99.1309 115.302 -178.676 115.302
c-94.083 0 -172.559 -66.1279 -191.584 -154.471c-1.19531 -5.54688 -6.06348 -9.5293 -11.7373 -9.5293h-28.5762c-7.49902 0 -13.1943 6.80664 -11.8066 14.1758c21.6367 114.9 122.518 201.824 243.704 201.824c86.2559 0 162.212 -44.043 206.639 -110.861
l-2.34668 98.5752c-0.160156 6.73828 5.25781 12.2861 11.9971 12.2861h27.7109zM487.897 160c7.49902 0 13.1943 -6.80664 11.8066 -14.1758c-21.6367 -114.9 -122.518 -201.824 -243.704 -201.824c-86.2559 0 -162.212 44.043 -206.639 110.861l2.34668 -98.5752
c0.160156 -6.73828 -5.25781 -12.2861 -11.9971 -12.2861h-27.7109c-6.62695 0 -12 5.37305 -12 12v192c0 6.62695 5.37305 12 12 12h192c6.62695 0 12 -5.37305 12 -12v-27.71c0 -6.74023 -5.54883 -12.1572 -12.2861 -11.9971l-126.39 3.00879
c30.7334 -68.0195 99.1299 -115.302 178.676 -115.302c94.083 0 172.559 66.1279 191.584 154.471c1.19531 5.54688 6.06348 9.5293 11.7373 9.5293h28.5762z" />
    <glyph glyph-name="list-alt" unicode="&#xf022;" 
d="M464 416c26.5098 0 48 -21.4902 48 -48v-352c0 -26.5098 -21.4902 -48 -48 -48h-416c-26.5098 0 -48 21.4902 -48 48v352c0 26.5098 21.4902 48 48 48h416zM458 16c3.31152 0 6 2.68848 6 6v340c0 3.31152 -2.68848 6 -6 6h-404c-3.31152 0 -6 -2.68848 -6 -6v-340
c0 -3.31152 2.68848 -6 6 -6h404zM416 108v-24c0 -6.62695 -5.37305 -12 -12 -12h-200c-6.62695 0 -12 5.37305 -12 12v24c0 6.62695 5.37305 12 12 12h200c6.62695 0 12 -5.37305 12 -12zM416 204v-24c0 -6.62695 -5.37305 -12 -12 -12h-200c-6.62695 0 -12 5.37305 -12 12
v24c0 6.62695 5.37305 12 12 12h200c6.62695 0 12 -5.37305 12 -12zM416 300v-24c0 -6.62695 -5.37305 -12 -12 -12h-200c-6.62695 0 -12 5.37305 -12 12v24c0 6.62695 5.37305 12 12 12h200c6.62695 0 12 -5.37305 12 -12zM164 288c0 -19.8818 -16.1182 -36 -36 -36
s-36 16.1182 -36 36s16.1182 36 36 36s36 -16.1182 36 -36zM164 192c0 -19.8818 -16.1182 -36 -36 -36s-36 16.1182 -36 36s16.1182 36 36 36s36 -16.1182 36 -36zM164 96c0 -19.8818 -16.1182 -36 -36 -36s-36 16.1182 -36 36s16.1182 36 36 36s36 -16.1182 36 -36z" />
    <glyph glyph-name="lock" unicode="&#xf023;" horiz-adv-x="448" 
d="M400 256c26.5 0 48 -21.5 48 -48v-224c0 -26.5 -21.5 -48 -48 -48h-352c-26.5 0 -48 21.5 -48 48v224c0 26.5 21.5 48 48 48h32v48c0 79.5 64.7998 144.2 144.4 144c79.5996 -0.200195 143.6 -65.7998 143.6 -145.4v-46.5996h32zM128 304v-48h192v48
c0 52.9004 -43.0996 96 -96 96s-96 -43.0996 -96 -96zM400 -16v224h-352v-224h352z" />
    <glyph glyph-name="flag" unicode="&#xf024;" 
d="M336.174 368c35.4668 0 73.0195 12.6914 108.922 28.1797c31.6406 13.6514 66.9043 -9.65723 66.9043 -44.1162v-239.919c0 -16.1953 -8.1543 -31.3057 -21.7129 -40.1631c-26.5762 -17.3643 -70.0693 -39.9814 -128.548 -39.9814c-68.6084 0 -112.781 32 -161.913 32
c-56.5674 0 -89.957 -11.2803 -127.826 -28.5566v-83.4434c0 -8.83691 -7.16309 -16 -16 -16h-16c-8.83691 0 -16 7.16309 -16 16v406.438c-14.3428 8.2998 -24 23.7979 -24 41.5615c0 27.5693 23.2422 49.71 51.2012 47.8965
c22.9658 -1.49023 41.8662 -19.4717 44.4805 -42.3379c0.177734 -1.52441 0.321289 -4.00781 0.321289 -5.54199c0 -4.30176 -1.10352 -11.1035 -2.46289 -15.1846c22.418 8.68555 49.4199 15.168 80.7207 15.168c68.6084 0 112.781 -32 161.913 -32zM464 112v240
c-31.5059 -14.6338 -84.5547 -32 -127.826 -32c-59.9111 0 -101.968 32 -161.913 32c-41.4365 0 -80.4766 -16.5879 -102.261 -32v-232c31.4473 14.5967 84.4648 24 127.826 24c59.9111 0 101.968 -32 161.913 -32c41.4365 0 80.4775 16.5879 102.261 32z" />
    <glyph glyph-name="headphones" unicode="&#xf025;" 
d="M256 416c141.503 0 256 -114.52 256 -256v-49.7129c0 -7.78418 -5.51855 -17.1768 -12.3193 -20.9658l-19.7021 -10.9775c-0.886719 -61.0918 -50.6768 -110.344 -111.979 -110.344h-24c-13.2549 0 -24 10.7451 -24 24v176c0 13.2549 10.7451 24 24 24h24
c40.7441 0 76.4023 -21.7578 96 -54.2871v22.2871c0 114.691 -93.3086 208 -208 208s-208 -93.3086 -208 -208v-22.2871c19.5977 32.5293 55.2559 54.2871 96 54.2871h24c13.2549 0 24 -10.7451 24 -24v-176c0 -13.2549 -10.7451 -24 -24 -24h-24
c-61.3018 0 -111.092 49.252 -111.979 110.343l-19.7021 10.9775c-6.80078 3.78809 -12.3193 13.1816 -12.3193 20.9658v49.7139c0 141.503 114.52 256 256 256zM144 144c-35.29 0 -64 -28.71 -64 -64s28.71 -64 64 -64v128zM368 16c35.29 0 64 28.71 64 64
s-28.71 64 -64 64v-128z" />
    <glyph glyph-name="volume-off" unicode="&#xf026;" horiz-adv-x="256" 
d="M231.81 384c12.3203 0 24.1904 -9.50977 24.1904 -24.0195v-335.961c0 -14.5 -11.8604 -24.0195 -24.1904 -24.0195c-5.89941 0 -11.9092 2.17969 -16.7793 7.0498l-88.9707 88.9502h-102.06c-13.2598 0 -24 10.75 -24 24v144c0 13.2598 10.7402 24 24 24h102.06
l88.9707 88.9502c4.85938 4.87012 10.8701 7.0498 16.7793 7.0498zM208 81.9502v220.1l-62.0596 -62.0498h-97.9404v-96h97.9404z" />
    <glyph glyph-name="volume-down" unicode="&#xf027;" horiz-adv-x="384" 
d="M338.23 268.87c28.2393 -15.54 45.7793 -45 45.7793 -76.8701s-17.54 -61.3203 -45.7695 -76.8701c-11.5605 -6.34961 -26.1807 -2.20996 -32.6104 9.4502c-6.38965 11.6104 -2.16016 26.2002 9.4502 32.6104c12.9004 7.08984 20.9199 20.4395 20.9199 34.8096
s-8.01953 27.7197 -20.9297 34.8096c-11.6104 6.41016 -15.8398 21 -9.4502 32.6104c6.41992 11.6104 21.0303 15.7803 32.6104 9.4502zM231.81 384c12.3203 0 24.1904 -9.50977 24.1904 -24.0195v-335.961c0 -14.5 -11.8604 -24.0195 -24.1904 -24.0195
c-5.89941 0 -11.9092 2.17969 -16.7793 7.0498l-88.9707 88.9502h-102.06c-13.2598 0 -24 10.75 -24 24v144c0 13.2598 10.7402 24 24 24h102.06l88.9707 88.9502c4.85938 4.87012 10.8701 7.0498 16.7793 7.0498zM208 81.9502v220.1l-62.0596 -62.0498h-97.9404v-96
h97.9404z" />
    <glyph glyph-name="volume-up" unicode="&#xf028;" horiz-adv-x="576" 
d="M338.23 268.88c28.2393 -15.5498 45.7793 -45.0098 45.7793 -76.8799s-17.54 -61.3203 -45.7695 -76.8701c-11.5605 -6.34961 -26.1807 -2.20996 -32.6104 9.4502c-6.38965 11.6104 -2.16016 26.2002 9.4502 32.6104c12.9004 7.08984 20.9199 20.4395 20.9199 34.8096
c0 14.3799 -8.01953 27.7197 -20.9297 34.8203c-11.6104 6.41016 -15.8398 21 -9.4502 32.6094c6.41992 11.6104 21.0303 15.7803 32.6104 9.4502zM480 192c0 -63.0898 -32.0596 -121.09 -85.7695 -155.15c-12 -7.61914 -26.6104 -2.86914 -33.1201 7.41016
c-7.09082 11.2002 -3.78027 26.0303 7.40918 33.1201c39.75 25.2197 63.4805 68.0605 63.4805 114.62s-23.7305 89.4102 -63.4805 114.62c-11.1895 7.08984 -14.5 21.9102 -7.40918 33.1201c7.08984 11.21 21.9297 14.5 33.1201 7.41016
c53.71 -34.0605 85.7695 -92.0605 85.7695 -155.15zM448.35 428.03c79.9199 -52.4502 127.65 -140.7 127.65 -236.03s-47.7305 -183.57 -127.65 -236.02c-11.5801 -7.61035 -26.4697 -3.76074 -33.5098 6.94922c-7.33984 11.1602 -4.21973 26.1807 6.9502 33.5
c66.2695 43.4902 105.82 116.59 105.82 195.57s-39.5508 152.09 -105.82 195.57c-11.1699 7.33008 -14.29 22.3398 -6.9502 33.5098c7.33008 11.1895 22.3398 14.2803 33.5098 6.9502zM231.81 384c12.3203 0 24.1904 -9.50977 24.1904 -24.0195v-335.961
c0 -14.5 -11.8604 -24.0195 -24.1904 -24.0195c-5.89941 0 -11.9092 2.19043 -16.7793 7.0498l-88.9707 88.9502h-102.06c-13.2598 0 -24 10.75 -24 24v144c0 13.2598 10.7402 24 24 24h102.06l88.9707 88.9502c4.85938 4.87012 10.8701 7.0498 16.7793 7.0498zM208 81.96
v220.09l-62.0596 -62.0498h-97.9404v-96h97.9404z" />
    <glyph glyph-name="qrcode" unicode="&#xf029;" horiz-adv-x="448" 
d="M0 224v192h192v-192h-192zM40 376v-112h112v112h-112zM256 416h192v-192h-192v192zM408 264v112h-112v-112h112zM0 -32v192h192v-192h-192zM40 120v-112h112v112h-112zM72 88h48v-48h-48v48zM72 344h48v-48h-48v48zM376 296h-48v48h48v-48zM416 160h32v-128h-128v32h-32
v-96h-32v192h96v-32h64v32zM416 0h32v-32h-32v32zM352 0h32v-32h-32v32z" />
    <glyph glyph-name="barcode" unicode="&#xf02a;" 
d="M0 0v384h18v-384h-18zM26.8574 0.273438v383.727h9.14258v-383.727h-9.14258zM54 0.273438v383.727h8.85742v-383.727h-8.85742zM98.8574 0.273438v383.727h8.85645v-383.727h-8.85645zM134.857 0.273438v383.727h17.7139v-383.727h-17.7139zM179.714 0.273438v383.727
h8.85742v-383.727h-8.85742zM197.714 0.273438v383.727h8.85742v-383.727h-8.85742zM215.714 0.273438v383.727h8.85742v-383.727h-8.85742zM251.429 0.273438v383.727h18v-383.727h-18zM296.286 0.273438v383.727h18v-383.727h-18zM332.285 0.273438v383.727h18.001
v-383.727h-18.001zM368.286 0.273438v383.727h18.001v-383.727h-18.001zM395.143 0.273438v383.727h18v-383.727h-18zM440.286 0.273438v383.727h26.8564v-383.727h-26.8564zM476 0.273438v383.727h9.14258v-383.727h-9.14258zM494 0v384h18v-384h-18z" />
    <glyph glyph-name="tag" unicode="&#xf02b;" 
d="M497.941 222.059c18.7441 -18.7441 18.7441 -49.1367 0 -67.8818l-204.118 -204.118c-18.7451 -18.7451 -49.1377 -18.7441 -67.8818 0l-211.883 211.883c-7.75977 7.75977 -14.0586 22.9648 -14.0586 33.9404v0v204.118c0 26.5098 21.4902 48 48 48h204.118
c10.9746 0 26.1807 -6.29883 33.9404 -14.0586zM259.886 -15.9961l204.114 204.114l-211.882 211.882h-204.118v-204.118zM192 304c0 -26.5098 -21.4902 -48 -48 -48s-48 21.4902 -48 48s21.4902 48 48 48s48 -21.4902 48 -48z" />
    <glyph glyph-name="tags" unicode="&#xf02c;" horiz-adv-x="640" 
d="M625.941 154.177l-204.118 -204.118c-18.7461 -18.7451 -49.1387 -18.7441 -67.8818 0l-0.360352 0.360352l238.419 237.699l-260.603 259.882h48.7207c10.9746 0 26.1807 -6.29883 33.9404 -14.0586l211.883 -211.883c18.7441 -18.7441 18.7441 -49.1367 0 -67.8818z
M497.941 154.177l-204.118 -204.118c-9.37207 -9.37305 -21.6572 -14.0586 -33.9414 -14.0586s-24.5684 4.68555 -33.9404 14.0586l-211.883 211.883c-7.75977 7.75977 -14.0586 22.9658 -14.0586 33.9404v204.118c0 26.5098 21.4902 48 48 48h204.118v0
c10.9756 0 26.1807 -6.29883 33.9404 -14.0586l211.883 -211.883c18.7441 -18.7441 18.7441 -49.1367 0 -67.8818zM464 188.118l-211.882 211.882h-204.118v-204.118l211.886 -211.878zM144 352c26.5098 0 48 -21.4902 48 -48s-21.4902 -48 -48 -48s-48 21.4902 -48 48
s21.4902 48 48 48z" />
    <glyph glyph-name="book" unicode="&#xf02d;" horiz-adv-x="448" 
d="M128 296v32c0 4.40039 3.59961 8 8 8h208c4.40039 0 8 -3.59961 8 -8v-32c0 -4.40039 -3.59961 -8 -8 -8h-208c-4.40039 0 -8 3.59961 -8 8zM136 208c-4.40039 0 -8 3.59961 -8 8v32c0 4.40039 3.59961 8 8 8h208c4.40039 0 8 -3.59961 8 -8v-32
c0 -4.40039 -3.59961 -8 -8 -8h-208zM435.1 48.2998c-4.19922 -13 -4.19922 -51.5996 0 -64.5996c7.30078 -1.40039 12.9004 -7.90039 12.9004 -15.7002v-16c0 -8.7998 -7.2002 -16 -16 -16h-352c-44.2002 0 -80 35.7998 -80 80v352c0 44.2002 35.7998 80 80 80h352
c8.7998 0 16 -7.2002 16 -16v-368c0 -7.7998 -5.5 -14.2002 -12.9004 -15.7002zM394 48h-314c-17.5996 0 -32 -14.4004 -32 -32c0 -17.7002 14.2998 -32 32 -32h314c-2.7002 17.2998 -2.7002 46.7002 0 64zM400 400h-320c-17.7002 0 -32 -14.2998 -32 -32v-278.7
c9.7998 4.2998 20.5996 6.7002 32 6.7002h320v304z" />
    <glyph glyph-name="bookmark" unicode="&#xf02e;" horiz-adv-x="384" 
d="M336 448c26.5098 0 48 -21.4902 48 -48v-464l-192 112l-192 -112v464c0 26.5098 21.4902 48 48 48h288zM336 19.5703v374.434c0 3.31348 -2.68555 5.99609 -6 5.99609h-276c-3.31152 0 -6 -2.68848 -6 -6v-374.43l144 84z" />
    <glyph glyph-name="print" unicode="&#xf02f;" 
d="M400 184c13.25 0 24 -10.7402 24 -24c0 -13.25 -10.75 -24 -24 -24s-24 10.75 -24 24c0 13.2598 10.75 24 24 24zM432 272c44.1797 0 80 -35.8203 80 -80v-128c0 -8.83984 -7.16016 -16 -16 -16h-64v-96c0 -8.83984 -7.16016 -16 -16 -16h-320
c-8.83984 0 -16 7.16016 -16 16v96h-64c-8.83984 0 -16 7.16016 -16 16v128c0 44.1797 35.8203 80 80 80v144c0 17.6699 13.6396 32 30.4805 32h221.64c12.7295 0 24.9395 -5.05957 33.9395 -14.0596l51.8809 -51.8809c9 -9 14.0596 -21.21 14.0596 -33.9395v-76.1201z
M128 400v-128h256v64h-48c-8.83984 0 -16 7.16016 -16 16v48h-192zM384 -16v64h-256v-64h256zM464 96v96c0 17.6396 -14.3604 32 -32 32h-352c-17.6396 0 -32 -14.3604 -32 -32v-96h416z" />
    <glyph glyph-name="camera" unicode="&#xf030;" 
d="M342.7 304l-23.9004 64h-125.5l-24 -64h-121.3v-288h416v288h-121.3zM324.3 416c16.7002 0 31.6006 -10.2998 37.4004 -26l14.2998 -38h88c26.5 0 48 -21.5 48 -48v-288c0 -26.5 -21.5 -48 -48 -48h-416c-26.5 0 -48 21.5 -48 48v288c0 26.5 21.5 48 48 48h88
l12.4004 32.9004c7 18.6992 24.8994 31.0996 44.8994 31.0996h131zM256 40c-66.2002 0 -120 53.7998 -120 120s53.7998 120 120 120s120 -53.7998 120 -120s-53.7998 -120 -120 -120zM256 232c-39.7002 0 -72 -32.2998 -72 -72s32.2998 -72 72 -72s72 32.2998 72 72
s-32.2998 72 -72 72z" />
    <glyph glyph-name="font" unicode="&#xf031;" horiz-adv-x="448" 
d="M428 17.5c6.59961 0 12 -5.40039 12 -12v-25.5c0 -6.59961 -5.40039 -12 -12 -12h-120c-6.59961 0 -12 5.40039 -12 12v25.5c0 6.59961 5.40039 12 12 12h29.9004l-34.9004 99.5996h-158.6l-34.9004 -99.5996h30.5c6.59961 0 12 -5.40039 12 -12v-25.5
c0 -6.59961 -5.40039 -12 -12 -12h-120c-6.59961 0 -12 5.40039 -12 12v25.5c0 6.59961 5.40039 12 12 12h25.4004l139.899 390.5c1.7002 4.7998 6.2002 8 11.2998 8h54.8008c5.09961 0 9.59961 -3.2002 11.2998 -8l139.899 -390.5h25.4004zM160.2 167.9h127l-54.6006 155.5
c-6.39941 18.3994 -8.59961 34.2998 -8.59961 34.2998s-2.90039 -15.9004 -8.59961 -34.2998z" />
    <glyph glyph-name="bold" unicode="&#xf032;" horiz-adv-x="384" 
d="M292 204.467c42.0254 -9.81738 76 -50.6689 76 -108.92c0 -59.0137 -36.1699 -103.434 -82.4922 -119.298c-21.5762 -6.98047 -42.5156 -8.24902 -67.2637 -8.24902h-190.244c-6.62695 0 -12 5.37305 -12 12v24c0 6.62695 5.37305 12 12 12h34.1416v352h-34.1416
c-6.62695 0 -12 5.37305 -12 12v24c0 6.62695 5.37305 12 12 12h181.995c32.3623 0 56.4756 -3.17285 78.6846 -13.3262c35.5361 -15.8643 61.5527 -52.6689 61.5527 -100.895c0 -42.0596 -20.126 -78.6855 -58.2324 -97.3125zM125.598 363.966v-136.431h90.8975
c37.4746 0 68.5713 29.8936 69.0049 67.3672c0.307617 26.5186 -9.86328 49.2314 -29.1826 60.1797c-12.6924 6.3457 -27.2861 8.88379 -46.3232 8.88379h-84.3965zM260.759 26.3799c26.0176 10.7881 42.5166 38.708 42.5166 72.3398
c0 46.3232 -30.459 76.7812 -77.416 76.7812h-100.262v-155.467h95.1846c12.6904 0 27.9209 1.26855 39.9766 6.3457z" />
    <glyph glyph-name="italic" unicode="&#xf033;" horiz-adv-x="256" 
d="M244 416c7.59961 0 13.2002 -6.90039 11.9004 -14.2998l-4.80078 -24c-1.09961 -5.7002 -6.09961 -9.7002 -11.7998 -9.7002h-45.8994l-67.9004 -352h41.0996c7.60059 0 13.3008 -6.90039 11.8008 -14.2998l-4.80078 -24
c-1.09961 -5.7002 -6.09961 -9.7002 -11.7998 -9.7002h-149.8c-7.59961 0 -13.2002 6.90039 -11.7998 14.2998l4.7998 24c1.09961 5.7002 6.09961 9.7002 11.7998 9.7002h45.2002l67.9004 352h-40.5c-7.5 0 -13.2002 6.90039 -11.8008 14.2998l4.80078 24
c1.09961 5.7002 6.09961 9.7002 11.7998 9.7002h149.8z" />
    <glyph glyph-name="text-height" unicode="&#xf034;" 
d="M0 308.869v95.1309c0 6.62695 5.37305 12 12 12h296c6.62695 0 12 -5.37305 12 -12v-95.1309c0 -6.62695 -5.37305 -12 -12 -12h-26.7471c-6.62695 0 -12 5.37305 -12 12v59.1309h-82.0146v-352h48.7617c6.62695 0 12 -5.37305 12 -12v-24
c0 -6.62695 -5.37305 -12 -12 -12h-152c-6.62695 0 -12 5.37305 -12 12v24c0 6.62695 5.37305 12 12 12h48.7617v352h-82.6367v-59.1309c0 -6.62695 -5.37305 -12 -12 -12h-26.125c-6.62695 0 -12 5.37207 -12 12zM423.276 412.241
c4.73145 5.00977 12.7129 5.01367 17.4473 0l67.9932 -72.001c7.16602 -7.58789 1.85645 -20.2402 -8.72363 -20.2402h-43.9932v-256h43.9941c10.5869 0 15.8838 -12.6592 8.72363 -20.2402l-67.9941 -72.001c-4.73145 -5.00977 -12.7129 -5.01367 -17.4473 0
l-67.9932 72.001c-7.16602 7.58789 -1.85645 20.2402 8.72363 20.2402h43.9932v256h-43.9941c-10.5869 0 -15.8838 12.6592 -8.72363 20.2402z" />
    <glyph glyph-name="text-width" unicode="&#xf035;" horiz-adv-x="448" 
d="M0 308.869v95.1309c0 6.62695 5.37305 12 12 12h424c6.62695 0 12 -5.37305 12 -12v-95.1309c0 -6.62695 -5.37305 -12 -12 -12h-26.7471c-6.62695 0 -12 5.37305 -12 12v59.1309h-146.015v-192h48.7617c6.62695 0 12 -5.37305 12 -12v-24
c0 -6.62695 -5.37305 -12 -12 -12h-152c-6.62695 0 -12 5.37305 -12 12v24c0 6.62695 5.37305 12 12 12h48.7617v192h-146.637v-59.1309c0 -6.62695 -5.37305 -12 -12 -12h-26.125c-6.62695 0 -12 5.37207 -12 12zM444.241 56.7236
c5.00977 -4.73145 5.01367 -12.7129 0 -17.4473l-72.001 -67.9932c-7.58789 -7.16602 -20.2402 -1.85645 -20.2402 8.72363v43.9932h-256v-43.9941c0 -10.5869 -12.6592 -15.8838 -20.2402 -8.72363l-72.001 67.9941c-5.00977 4.73145 -5.01367 12.7129 0 17.4473
l72.001 67.9932c7.58789 7.16602 20.2402 1.85645 20.2402 -8.72363v-43.9932h256v43.9941c0 10.5869 12.6592 15.8838 20.2402 8.72363z" />
    <glyph glyph-name="align-left" unicode="&#xf036;" horiz-adv-x="448" 
d="M288 400v-32c0 -6.62695 -5.37305 -12 -12 -12h-264c-6.62695 0 -12 5.37305 -12 12v32c0 6.62695 5.37305 12 12 12h264c6.62695 0 12 -5.37305 12 -12zM12 228c-6.62695 0 -12 5.37305 -12 12v32c0 6.62695 5.37305 12 12 12h424c6.62695 0 12 -5.37305 12 -12v-32
c0 -6.62695 -5.37305 -12 -12 -12h-424zM12 -28c-6.62695 0 -12 5.37305 -12 12v32c0 6.62695 5.37305 12 12 12h424c6.62695 0 12 -5.37305 12 -12v-32c0 -6.62695 -5.37305 -12 -12 -12h-424zM276 156c6.62695 0 12 -5.37305 12 -12v-32c0 -6.62695 -5.37305 -12 -12 -12
h-264c-6.62695 0 -12 5.37305 -12 12v32c0 6.62695 5.37305 12 12 12h264z" />
    <glyph glyph-name="align-center" unicode="&#xf037;" horiz-adv-x="448" 
d="M352 400v-32c0 -6.62695 -5.37305 -12 -12 -12h-232c-6.62695 0 -12 5.37305 -12 12v32c0 6.62695 5.37305 12 12 12h232c6.62695 0 12 -5.37305 12 -12zM12 228c-6.62695 0 -12 5.37305 -12 12v32c0 6.62695 5.37305 12 12 12h424c6.62695 0 12 -5.37305 12 -12v-32
c0 -6.62695 -5.37305 -12 -12 -12h-424zM12 -28c-6.62695 0 -12 5.37305 -12 12v32c0 6.62695 5.37305 12 12 12h424c6.62695 0 12 -5.37305 12 -12v-32c0 -6.62695 -5.37305 -12 -12 -12h-424zM340 156c6.62695 0 12 -5.37305 12 -12v-32c0 -6.62695 -5.37305 -12 -12 -12
h-232c-6.62695 0 -12 5.37305 -12 12v32c0 6.62695 5.37305 12 12 12h232z" />
    <glyph glyph-name="align-right" unicode="&#xf038;" horiz-adv-x="448" 
d="M160 368v32c0 6.62695 5.37305 12 12 12h264c6.62695 0 12 -5.37305 12 -12v-32c0 -6.62695 -5.37305 -12 -12 -12h-264c-6.62695 0 -12 5.37305 -12 12zM12 228c-6.62695 0 -12 5.37305 -12 12v32c0 6.62695 5.37305 12 12 12h424c6.62695 0 12 -5.37305 12 -12v-32
c0 -6.62695 -5.37305 -12 -12 -12h-424zM12 -28c-6.62695 0 -12 5.37305 -12 12v32c0 6.62695 5.37305 12 12 12h424c6.62695 0 12 -5.37305 12 -12v-32c0 -6.62695 -5.37305 -12 -12 -12h-424zM172 100c-6.62695 0 -12 5.37305 -12 12v32c0 6.62695 5.37305 12 12 12h264
c6.62695 0 12 -5.37305 12 -12v-32c0 -6.62695 -5.37305 -12 -12 -12h-264z" />
    <glyph glyph-name="align-justify" unicode="&#xf039;" horiz-adv-x="448" 
d="M0 368v32c0 6.62695 5.37305 12 12 12h424c6.62695 0 12 -5.37305 12 -12v-32c0 -6.62695 -5.37305 -12 -12 -12h-424c-6.62695 0 -12 5.37305 -12 12zM12 228c-6.62695 0 -12 5.37305 -12 12v32c0 6.62695 5.37305 12 12 12h424c6.62695 0 12 -5.37305 12 -12v-32
c0 -6.62695 -5.37305 -12 -12 -12h-424zM12 -28c-6.62695 0 -12 5.37305 -12 12v32c0 6.62695 5.37305 12 12 12h424c6.62695 0 12 -5.37305 12 -12v-32c0 -6.62695 -5.37305 -12 -12 -12h-424zM12 100c-6.62695 0 -12 5.37305 -12 12v32c0 6.62695 5.37305 12 12 12h424
c6.62695 0 12 -5.37305 12 -12v-32c0 -6.62695 -5.37305 -12 -12 -12h-424z" />
    <glyph glyph-name="list" unicode="&#xf03a;" 
d="M500 324h-360c-6.62695 0 -12 5.37305 -12 12v32c0 6.62695 5.37305 12 12 12h360c6.62695 0 12 -5.37305 12 -12v-32c0 -6.62695 -5.37305 -12 -12 -12zM512 176c0 -6.62695 -5.37305 -12 -12 -12h-360c-6.62695 0 -12 5.37305 -12 12v32c0 6.62695 5.37305 12 12 12
h360c6.62695 0 12 -5.37305 12 -12v-32zM512 16c0 -6.62695 -5.37305 -12 -12 -12h-360c-6.62695 0 -12 5.37305 -12 12v32c0 6.62695 5.37305 12 12 12h360c6.62695 0 12 -5.37305 12 -12v-32zM92 320c0 -6.62695 -5.37305 -12 -12 -12h-64c-6.62695 0 -12 5.37305 -12 12
v64c0 6.62695 5.37305 12 12 12h64c6.62695 0 12 -5.37305 12 -12v-64zM92 160c0 -6.62695 -5.37305 -12 -12 -12h-64c-6.62695 0 -12 5.37305 -12 12v64c0 6.62695 5.37305 12 12 12h64c6.62695 0 12 -5.37305 12 -12v-64zM92 0c0 -6.62695 -5.37305 -12 -12 -12h-64
c-6.62695 0 -12 5.37305 -12 12v64c0 6.62695 5.37305 12 12 12h64c6.62695 0 12 -5.37305 12 -12v-64z" />
    <glyph glyph-name="outdent" unicode="&#xf03b;" horiz-adv-x="448" 
d="M0 368v32c0 6.62695 5.37305 12 12 12h424c6.62695 0 12 -5.37305 12 -12v-32c0 -6.62695 -5.37305 -12 -12 -12h-424c-6.62695 0 -12 5.37305 -12 12zM204 228c-6.62695 0 -12 5.37305 -12 12v32c0 6.62695 5.37305 12 12 12h232c6.62695 0 12 -5.37305 12 -12v-32
c0 -6.62695 -5.37305 -12 -12 -12h-232zM12 -28c-6.62695 0 -12 5.37305 -12 12v32c0 6.62695 5.37305 12 12 12h424c6.62695 0 12 -5.37305 12 -12v-32c0 -6.62695 -5.37305 -12 -12 -12h-424zM204 100c-6.62695 0 -12 5.37305 -12 12v32c0 6.62695 5.37305 12 12 12h232
c6.62695 0 12 -5.37305 12 -12v-32c0 -6.62695 -5.37305 -12 -12 -12h-232zM4.68652 180.687c-6.24805 6.24805 -6.24805 16.3789 0 22.627l96 95.9912c9.98828 9.99121 27.3135 3.0166 27.3135 -11.3125v-191.977c0 -14.2393 -17.2656 -21.3633 -27.3135 -11.3125z" />
    <glyph glyph-name="indent" unicode="&#xf03c;" horiz-adv-x="448" 
d="M0 368v32c0 6.62695 5.37305 12 12 12h424c6.62695 0 12 -5.37305 12 -12v-32c0 -6.62695 -5.37305 -12 -12 -12h-424c-6.62695 0 -12 5.37305 -12 12zM172 228c-6.62695 0 -12 5.37305 -12 12v32c0 6.62695 5.37305 12 12 12h264c6.62695 0 12 -5.37305 12 -12v-32
c0 -6.62695 -5.37305 -12 -12 -12h-264zM12 -28c-6.62695 0 -12 5.37305 -12 12v32c0 6.62695 5.37305 12 12 12h424c6.62695 0 12 -5.37305 12 -12v-32c0 -6.62695 -5.37305 -12 -12 -12h-424zM172 100c-6.62695 0 -12 5.37305 -12 12v32c0 6.62695 5.37305 12 12 12h264
c6.62695 0 12 -5.37305 12 -12v-32c0 -6.62695 -5.37305 -12 -12 -12h-264zM123.313 203.313c6.24805 -6.24805 6.24805 -16.3789 0 -22.625l-96 -95.9922c-9.98828 -9.99121 -27.3135 -3.0166 -27.3135 11.3125v191.976c0 14.2393 17.2656 21.3633 27.3135 11.3125z" />
    <glyph glyph-name="video" unicode="&#xf03d;" horiz-adv-x="576" 
d="M543.9 352c16.5996 0 32.0996 -13 32.0996 -31.5v-256.9c0 -18.5 -15.5 -31.5 -32.0996 -31.5c-6.10059 0 -12.5 1.7002 -18.2002 5.7002l-109.7 68.2998v-58.2998c0 -26.3994 -23.2002 -47.7998 -51.7998 -47.7998h-312.4c-28.5996 0 -51.7998 21.4004 -51.7998 47.7998
v288.4c0 26.3994 23.2002 47.7998 51.7998 47.7998h312.4c28.5996 0 51.7998 -21.4004 51.7998 -47.7998v-58.2998l109.7 68.3994c5.7002 3.90039 12 5.7002 18.2002 5.7002zM368 248v86.9004c-0.599609 0.5 -1.7998 1.09961 -3.7998 1.09961h-312.4
c-2 0 -3.2002 -0.700195 -3.7998 -1.09961v-285.801c0.599609 -0.5 1.7998 -1.09961 3.7998 -1.09961h312.4c2 0 3.2002 0.700195 3.7998 1.09961v198.9zM528 92.7998v198.3l-112 -69.7998v-58.7002z" />
    <glyph glyph-name="image" unicode="&#xf03e;" 
d="M464 384c26.5098 0 48 -21.4902 48 -48v-288c0 -26.5098 -21.4902 -48 -48 -48h-416c-26.5098 0 -48 21.4902 -48 48v288c0 26.5098 21.4902 48 48 48h416zM458 48c3.31152 0 6 2.68848 6 6v276c0 3.31152 -2.68848 6 -6 6h-404c-3.31152 0 -6 -2.68848 -6 -6v-276
c0 -3.31152 2.68848 -6 6 -6h404zM128 296c22.0908 0 40 -17.9092 40 -40s-17.9092 -40 -40 -40s-40 17.9092 -40 40s17.9092 40 40 40zM96 96v48l39.5137 39.5146c4.6875 4.68652 12.2852 4.68652 16.9717 0l39.5146 -39.5146l119.514 119.515
c4.6875 4.68652 12.2852 4.68652 16.9717 0l87.5146 -87.5146v-80h-320z" />
    <glyph glyph-name="pencil" unicode="&#xf040;" 
d="M491.609 374.375c27.209 -27.208 26.958 -69.7559 0.62793 -96.0869l-315.326 -317.378l-148.995 -24.582c-16.2188 -2.67383 -30.2617 11.3721 -27.5869 27.5869l24.5811 148.996l317.378 315.304c26.3838 26.3818 69.082 26.3779 95.46 -0.000976562zM120.644 146
h41.3564v-48h48v-41.3555l169.154 170.26l-88.251 88.251zM82.1318 -10.1318l73.5859 12.1406l18.2822 18.4014v41.5898h-48v48h-41.5908l-18.4004 -18.2822l-12.1396 -73.5869zM461.117 309.401c9.31055 9.31152 9.25 23.9834 -0.62793 33.8604l-53.8545 53.8545
c-9.25781 9.25781 -24.0889 9.14453 -33.2354 -0.000976562l-0.0507812 -0.0498047l-0.0498047 -0.0507812l-48.3438 -48.0293l88.0303 -88.0303l48.0293 48.3438l0.0517578 0.0507812z" />
    <glyph glyph-name="map-marker" unicode="&#xf041;" horiz-adv-x="384" 
d="M192 448c105.986 0 192 -85.9033 192 -192c0 -71.1025 -23.9248 -93.2344 -151.272 -297.424c-18.7627 -30.083 -62.6719 -30.1191 -81.4561 0c-127.28 204.083 -151.271 226.307 -151.271 297.424c0 105.986 85.9033 192 192 192zM192 -16
c128.834 206.575 144 217.447 144 272c0 79.5293 -64.4707 144 -144 144s-144 -64.4707 -144 -144c0 -54.7881 16.5762 -67.6855 144 -272z" />
    <glyph glyph-name="adjust" unicode="&#xf042;" 
d="M256 392c-110.532 0 -200 -89.4512 -200 -200c0 -110.532 89.4512 -200 200 -200c110.532 0 200 89.4512 200 200c0 110.532 -89.4512 200 -200 200zM256 440c136.967 0 248 -111.033 248 -248s-111.033 -248 -248 -248s-248 111.033 -248 248s111.033 248 248 248z
M256 344v-304c-83.9473 0 -152 68.0527 -152 152s68.0527 152 152 152z" />
    <glyph glyph-name="tint" unicode="&#xf043;" horiz-adv-x="352" 
d="M205.22 425.91c46.9902 -158.48 146.78 -200.07 146.78 -311.82c0 -98.4395 -78.7197 -178.09 -176 -178.09s-176 79.6504 -176 178.09c0 111.19 100.01 154.061 146.78 311.82c4.4502 14.8896 16.8398 22.0898 29.1895 22.0898
c12.6406 0 25.2402 -7.53027 29.25 -22.0898zM176 -16c70.5801 0 128 58.3604 128 130.08c0 43.5703 -20.6104 73.0195 -51.7998 117.6c-24.1807 34.5605 -53.0498 75.8301 -76.2002 132.66c-23.0596 -56.54 -51.8896 -97.8496 -76.04 -132.46
c-31.29 -44.8398 -51.96 -74.46 -51.96 -117.79c0 -71.7295 57.4199 -130.09 128 -130.09zM192 48c8.83984 0 16 -7.16016 16 -16s-7.16016 -16 -16 -16c-61.75 0 -112 50.25 -112 112c0 8.83984 7.16016 16 16 16s16 -7.16016 16 -16c0 -44.1104 35.8799 -80 80 -80z" />
    <glyph glyph-name="edit" unicode="&#xf044;" horiz-adv-x="576" 
d="M402.3 103.1l32 32c5 5 13.7002 1.5 13.7002 -5.69922v-145.4c0 -26.5 -21.5 -48 -48 -48h-352c-26.5 0 -48 21.5 -48 48v352c0 26.5 21.5 48 48 48h273.5c7.09961 0 10.7002 -8.59961 5.7002 -13.7002l-32 -32c-1.5 -1.5 -3.5 -2.2998 -5.7002 -2.2998h-241.5v-352h352
v113.5c0 2.09961 0.799805 4.09961 2.2998 5.59961zM558.9 304.9l-262.601 -262.601l-90.3994 -10c-26.2002 -2.89941 -48.5 19.2002 -45.6006 45.6006l10 90.3994l262.601 262.601c22.8994 22.8994 59.8994 22.8994 82.6992 0l43.2002 -43.2002
c22.9004 -22.9004 22.9004 -60 0.100586 -82.7998zM460.1 274l-58.0996 58.0996l-185.8 -185.899l-7.2998 -65.2998l65.2998 7.2998zM524.9 353.7l-43.2002 43.2002c-4.10059 4.09961 -10.7998 4.09961 -14.7998 0l-30.9004 -30.9004l58.0996 -58.0996l30.9004 30.8994
c4 4.2002 4 10.7998 -0.0996094 14.9004z" />
    <glyph glyph-name="arrows" unicode="&#xf047;" 
d="M360.549 35.7842l-96.0635 -96.2695c-4.68652 -4.68555 -12.2842 -4.68555 -16.9717 0l-96.0635 96.2695c-4.68652 4.68555 -4.68652 12.2842 0 16.9707l19.626 19.626c4.75293 4.75293 12.4834 4.6748 17.1396 -0.172852l41.7842 -44.9883h2v140.78h-140.78v-2
l44.9863 -41.7832c4.84863 -4.65625 4.92676 -12.3867 0.172852 -17.1396l-19.626 -19.626c-4.68555 -4.68652 -12.2842 -4.68652 -16.9707 0l-96.2676 96.0635c-4.68555 4.68652 -4.68555 12.2842 0 16.9717l96.2695 96.0635c4.68555 4.68652 12.2842 4.68652 16.9697 0
l19.626 -19.626c4.75293 -4.75293 4.6748 -12.4834 -0.172852 -17.1396l-44.9873 -41.7842v-2h140.78v140.78h-2l-41.7832 -44.9863c-4.65625 -4.84863 -12.3867 -4.92676 -17.1396 -0.172852l-19.626 19.626c-4.68652 4.68555 -4.68652 12.2842 0 16.9707l96.0635 96.2695
c4.68652 4.68555 12.2842 4.68555 16.9717 0l96.0635 -96.2695c4.68652 -4.68555 4.68652 -12.2842 0 -16.9707l-19.626 -19.626c-4.75293 -4.75293 -12.4834 -4.6748 -17.1396 0.172852l-41.7842 44.9863h-2v-140.78h140.78v2l-44.9863 41.7832
c-4.84863 4.65625 -4.92676 12.3867 -0.172852 17.1396l19.626 19.626c4.68555 4.68652 12.2842 4.68652 16.9707 0l96.2695 -96.0635c4.68555 -4.68652 4.68555 -12.2842 0 -16.9717l-96.2695 -96.0635c-4.68555 -4.68652 -12.2842 -4.68652 -16.9707 0l-19.626 19.626
c-4.75293 4.75293 -4.6748 12.4834 0.172852 17.1396l44.9863 41.7842v2h-140.78v-140.78h2l41.7832 44.9863c4.65625 4.84863 12.3867 4.92676 17.1396 0.172852l19.626 -19.626c4.6875 -4.68457 4.6875 -12.2832 0 -16.9688z" />
    <glyph glyph-name="step-backward" unicode="&#xf048;" horiz-adv-x="448" 
d="M76 -32c-6.59961 0 -12 5.40039 -12 12v424c0 6.59961 5.40039 12 12 12h24c6.59961 0 12 -5.40039 12 -12v-184.1l219.5 188.699c20.5996 17.2002 52.5 2.80078 52.5 -24.5996v-384c0 -27.4004 -31.9004 -41.7998 -52.5 -24.5996l-219.5 187.6v-183
c0 -6.59961 -5.40039 -12 -12 -12h-24zM336 349.5l-186.7 -158l186.7 -157.1v315.1z" />
    <glyph glyph-name="fast-backward" unicode="&#xf049;" 
d="M12 0c-6.59961 0 -12 5.40039 -12 12v360c0 6.59961 5.40039 12 12 12h24c6.59961 0 12 -5.40039 12 -12v-159.4c1.09961 1.2002 2.2002 2.30078 3.5 3.40039l184 160.5c20.5996 17.2002 52.5 2.7998 52.5 -24.5996v-125l171.5 149.699
c20.5996 17.2002 52.5 2.80078 52.5 -24.5996v-320c0 -27.4004 -31.9004 -41.7998 -52.5 -24.5996l-171.5 148.6v-124c0 -27.4004 -31.9004 -41.7998 -52.5 -24.5996l-184 159.5c-1.2998 1 -2.40039 2.19922 -3.5 3.39941v-158.3c0 -6.59961 -5.40039 -12 -12 -12h-24z
M464 316.8l-143.6 -125.3l143.6 -124.5v249.8zM240 316.8l-143.6 -125.3l143.6 -124.5v249.8z" />
    <glyph glyph-name="backward" unicode="&#xf04a;" 
d="M267.5 166.8c-15.2998 12.7998 -15.2998 36.4004 0 49.2002l192 160.6c20.5996 17.2002 52.5 2.80078 52.5 -24.5996v-320c0 -27.4004 -31.9004 -41.7998 -52.5 -24.5996zM464 317.7l-151 -126.3l151 -125.4v251.7zM11.5 166.8
c-15.2998 12.7998 -15.2998 36.4004 0 49.2002l192 160.6c20.5996 17.2002 52.5 2.80078 52.5 -24.5996v-320c0 -27.4004 -31.9004 -41.7998 -52.5 -24.5996zM208 317.7l-151 -126.3l151 -125.4v251.7z" />
    <glyph glyph-name="play" unicode="&#xf04b;" horiz-adv-x="448" 
d="M424.4 233.3c31.5 -18.5 31.3994 -64.0996 0 -82.5996l-352 -208c-31.7002 -18.7998 -72.4004 3.7998 -72.4004 41.2998v416.1c0 41.8008 43.7998 58.2002 72.4004 41.3008zM48 -5.5c0 -4.59961 5.09961 -7.5 9.09961 -5.2002l334.2 197.601
c3.90039 2.2998 3.90039 8 0 10.2998l-334.2 197.5c-4 2.2998 -9.09961 -0.600586 -9.09961 -5.2002v-395z" />
    <glyph glyph-name="pause" unicode="&#xf04c;" horiz-adv-x="448" 
d="M192 369v-352c0 -26.5 -21.5 -48 -48 -48h-96c-26.5 0 -48 21.5 -48 48v352c0 26.5 21.5 48 48 48h96c26.5 0 48 -21.5 48 -48zM144 23v340c0 3.2998 -2.7002 6 -6 6h-84c-3.2998 0 -6 -2.7002 -6 -6v-340c0 -3.2998 2.7002 -6 6 -6h84c3.2998 0 6 2.7002 6 6zM448 369
v-352c0 -26.5 -21.5 -48 -48 -48h-96c-26.5 0 -48 21.5 -48 48v352c0 26.5 21.5 48 48 48h96c26.5 0 48 -21.5 48 -48zM400 23v340c0 3.2998 -2.7002 6 -6 6h-84c-3.2998 0 -6 -2.7002 -6 -6v-340c0 -3.2998 2.7002 -6 6 -6h84c3.2998 0 6 2.7002 6 6z" />
    <glyph glyph-name="stop" unicode="&#xf04d;" horiz-adv-x="448" 
d="M400 416c26.5 0 48 -21.5 48 -48v-352c0 -26.5 -21.5 -48 -48 -48h-352c-26.5 0 -48 21.5 -48 48v352c0 26.5 21.5 48 48 48h352zM394 16c3.2998 0 6 2.7002 6 6v340c0 3.2998 -2.7002 6 -6 6h-340c-3.2998 0 -6 -2.7002 -6 -6v-340c0 -3.2998 2.7002 -6 6 -6h340z" />
    <glyph glyph-name="forward" unicode="&#xf04e;" 
d="M244.5 217.2c15.2998 -12.7998 15.2998 -36.4004 0 -49.2002l-192 -160.6c-20.5996 -17.2002 -52.5 -2.80078 -52.5 24.5996v320c0 27.4004 31.9004 41.7002 52.5 24.5996zM48 66.2998l151 126.2l-151 125.4v-251.601zM500.5 217.2
c15.2998 -12.7998 15.2998 -36.4004 0 -49.2002l-192 -160.6c-20.5996 -17.2002 -52.5 -2.80078 -52.5 24.5996v320c0 27.4004 31.9004 41.7002 52.5 24.5996zM304 66.2998l151 126.2l-151 125.4v-251.601z" />
    <glyph glyph-name="fast-forward" unicode="&#xf050;" 
d="M500 384c6.59961 0 12 -5.40039 12 -12v-360c0 -6.59961 -5.40039 -12 -12 -12h-24c-6.59961 0 -12 5.40039 -12 12v159.3c-1.09961 -1.2002 -2.2002 -2.2998 -3.5 -3.39941l-184 -160.5c-20.5996 -17.2002 -52.5 -2.80078 -52.5 24.5996v125l-171.5 -149.6
c-20.5996 -17.2002 -52.5 -2.80078 -52.5 24.5996v320c0 27.4004 31.9004 41.7002 52.5 24.5996l171.5 -148.6v124c0 27.4004 31.9004 41.7002 52.5 24.5996l184 -159.5c1.2998 -1 2.40039 -2.19922 3.5 -3.39941v158.3c0 6.59961 5.40039 12 12 12h24zM48 67.2002
l143.6 125.3l-143.6 124.4v-249.7zM272 67.2002l143.6 125.3l-143.6 124.4v-249.7z" />
    <glyph glyph-name="step-forward" unicode="&#xf051;" horiz-adv-x="448" 
d="M372 416c6.59961 0 12 -5.40039 12 -12v-424c0 -6.59961 -5.40039 -12 -12 -12h-24c-6.59961 0 -12 5.40039 -12 12v184.1l-219.5 -188.699c-20.5996 -17.2002 -52.5 -2.80078 -52.5 24.5996v384c0 27.4004 31.9004 41.7002 52.5 24.5996l219.5 -187.6v183
c0 6.59961 5.40039 12 12 12h24zM112 34.5l186.7 158l-186.7 157.1v-315.1z" />
    <glyph glyph-name="eject" unicode="&#xf052;" horiz-adv-x="448" 
d="M400 128c26.5098 0 48 -21.4902 48 -48v-64c0 -26.5098 -21.4902 -48 -48 -48h-352c-26.5098 0 -48 21.4902 -48 48v64c0 26.5098 21.4902 48 48 48h352zM400 16v64h-352v-64h352zM48.0479 144c-42.7227 0 -64.0898 51.792 -33.9404 81.9414l175.951 176
c18.7451 18.7451 49.1377 18.7441 67.8828 0l175.942 -176c30.21 -30.21 8.69629 -81.9414 -33.9404 -81.9414h-351.896zM224 368l-176 -176h352z" />
    <glyph glyph-name="chevron-left" unicode="&#xf053;" horiz-adv-x="256" 
d="M231.293 -25.8994c-4.68555 -4.68652 -12.2842 -4.68652 -16.9707 -0.000976562l-209.414 209.414c-4.68652 4.6875 -4.68652 12.2852 0 16.9717l209.414 209.415c4.68652 4.68555 12.2852 4.68555 16.9707 0l19.7988 -19.7998
c4.68652 -4.68652 4.68652 -12.2842 0 -16.9707l-180.699 -181.13l180.699 -181.129c4.68652 -4.6875 4.68652 -12.2852 0 -16.9707z" />
    <glyph glyph-name="chevron-right" unicode="&#xf054;" horiz-adv-x="256" 
d="M24.707 409.899c4.68555 4.68652 12.2842 4.68652 16.9707 0l209.414 -209.414c4.68652 -4.6875 4.68652 -12.2852 0 -16.9717l-209.414 -209.414c-4.68652 -4.68555 -12.2852 -4.68555 -16.9707 0l-19.7988 19.7998c-4.68652 4.68652 -4.68652 12.2842 0 16.9707
l180.699 181.13l-180.699 181.13c-4.68652 4.6875 -4.68652 12.2852 0 16.9707z" />
    <glyph glyph-name="plus-circle" unicode="&#xf055;" 
d="M384 208v-32c0 -6.59961 -5.40039 -12 -12 -12h-88v-88c0 -6.59961 -5.40039 -12 -12 -12h-32c-6.59961 0 -12 5.40039 -12 12v88h-88c-6.59961 0 -12 5.40039 -12 12v32c0 6.59961 5.40039 12 12 12h88v88c0 6.59961 5.40039 12 12 12h32c6.59961 0 12 -5.40039 12 -12
v-88h88c6.59961 0 12 -5.40039 12 -12zM504 192c0 -137 -111 -248 -248 -248s-248 111 -248 248s111 248 248 248s248 -111 248 -248zM456 192c0 110.5 -89.5 200 -200 200s-200 -89.5 -200 -200s89.5 -200 200 -200s200 89.5 200 200z" />
    <glyph glyph-name="minus-circle" unicode="&#xf056;" 
d="M140 164c-6.59961 0 -12 5.40039 -12 12v32c0 6.59961 5.40039 12 12 12h232c6.59961 0 12 -5.40039 12 -12v-32c0 -6.59961 -5.40039 -12 -12 -12h-232zM504 192c0 -137 -111 -248 -248 -248s-248 111 -248 248s111 248 248 248s248 -111 248 -248zM456 192
c0 110.5 -89.5 200 -200 200s-200 -89.5 -200 -200s89.5 -200 200 -200s200 89.5 200 200z" />
    <glyph glyph-name="times-circle" unicode="&#xf057;" 
d="M256 440c137 0 248 -111 248 -248s-111 -248 -248 -248s-248 111 -248 248s111 248 248 248zM256 -8c110.5 0 200 89.5 200 200s-89.5 200 -200 200s-200 -89.5 -200 -200s89.5 -200 200 -200zM357.8 254.2l-62.2002 -62.2002l62.2002 -62.2002
c4.7002 -4.7002 4.7002 -12.2998 0 -17l-22.5996 -22.5996c-4.7002 -4.7002 -12.2998 -4.7002 -17 0l-62.2002 62.2002l-62.2002 -62.2002c-4.7002 -4.7002 -12.2998 -4.7002 -17 0l-22.5996 22.5996c-4.7002 4.7002 -4.7002 12.2998 0 17l62.2002 62.2002l-62.2002 62.2002
c-4.7002 4.7002 -4.7002 12.2998 0 17l22.5996 22.5996c4.7002 4.7002 12.2998 4.7002 17 0l62.2002 -62.2002l62.2002 62.2002c4.7002 4.7002 12.2998 4.7002 17 0l22.5996 -22.5996c4.7002 -4.7002 4.7002 -12.2998 0 -17z" />
    <glyph glyph-name="check-circle" unicode="&#xf058;" 
d="M256 440c136.967 0 248 -111.033 248 -248s-111.033 -248 -248 -248s-248 111.033 -248 248s111.033 248 248 248zM256 392c-110.549 0 -200 -89.4678 -200 -200c0 -110.549 89.4678 -200 200 -200c110.549 0 200 89.4678 200 200c0 110.549 -89.4678 200 -200 200z
M396.204 261.733c4.66699 -4.70508 4.63672 -12.3037 -0.0673828 -16.9717l-172.589 -171.204c-4.70508 -4.66797 -12.3027 -4.63672 -16.9697 0.0683594l-90.7812 91.5156c-4.66797 4.70605 -4.63672 12.3047 0.0683594 16.9717l22.7188 22.5361
c4.70508 4.66699 12.3027 4.63574 16.9697 -0.0693359l59.792 -60.2773l141.353 140.216c4.70508 4.66797 12.3027 4.6377 16.9697 -0.0673828z" />
    <glyph glyph-name="question-circle" unicode="&#xf059;" 
d="M256 440c136.957 0 248 -111.083 248 -248c0 -136.997 -111.043 -248 -248 -248s-248 111.003 -248 248c0 136.917 111.043 248 248 248zM256 -8c110.569 0 200 89.4697 200 200c0 110.529 -89.5088 200 -200 200c-110.528 0 -200 -89.5049 -200 -200
c0 -110.569 89.4678 -200 200 -200zM363.244 247.2c0 -67.0518 -72.4209 -68.084 -72.4209 -92.8633v-6.33691c0 -6.62695 -5.37305 -12 -12 -12h-45.6475c-6.62695 0 -12 5.37305 -12 12v8.65918c0 35.7451 27.1006 50.0342 47.5791 61.5156
c17.5615 9.84473 28.3242 16.541 28.3242 29.5791c0 17.2461 -21.999 28.6934 -39.7842 28.6934c-23.1885 0 -33.8936 -10.9775 -48.9424 -29.9697c-4.05664 -5.11914 -11.46 -6.07031 -16.666 -2.12402l-27.8232 21.0986
c-5.10742 3.87207 -6.25098 11.0654 -2.64453 16.3633c23.627 34.6934 53.7217 54.1846 100.575 54.1846c49.0713 0 101.45 -38.3037 101.45 -88.7998zM298 80c0 -23.1592 -18.8408 -42 -42 -42s-42 18.8408 -42 42s18.8408 42 42 42s42 -18.8408 42 -42z" />
    <glyph glyph-name="info-circle" unicode="&#xf05a;" 
d="M256 440c136.957 0 248 -111.083 248 -248c0 -136.997 -111.043 -248 -248 -248s-248 111.003 -248 248c0 136.917 111.043 248 248 248zM256 -8c110.569 0 200 89.4697 200 200c0 110.529 -89.5088 200 -200 200c-110.528 0 -200 -89.5049 -200 -200
c0 -110.569 89.4678 -200 200 -200zM256 330c23.1963 0 42 -18.8037 42 -42s-18.8037 -42 -42 -42s-42 18.8037 -42 42s18.8037 42 42 42zM312 76c0 -6.62695 -5.37305 -12 -12 -12h-88c-6.62695 0 -12 5.37305 -12 12v24c0 6.62695 5.37305 12 12 12h12v64h-12
c-6.62695 0 -12 5.37305 -12 12v24c0 6.62695 5.37305 12 12 12h64c6.62695 0 12 -5.37305 12 -12v-100h12c6.62695 0 12 -5.37305 12 -12v-24z" />
    <glyph glyph-name="crosshairs" unicode="&#xf05b;" 
d="M500 216c6.62695 0 12 -5.37305 12 -12v-24c0 -6.62695 -5.37305 -12 -12 -12h-29.334c-11.0693 -100.115 -90.5508 -179.597 -190.666 -190.666v-29.334c0 -6.62695 -5.37305 -12 -12 -12h-24c-6.62695 0 -12 5.37305 -12 12v29.334
c-100.115 11.0693 -179.597 90.5508 -190.666 190.666h-29.334c-6.62695 0 -12 5.37305 -12 12v24c0 6.62695 5.37305 12 12 12h29.334c11.0693 100.115 90.5508 179.597 190.666 190.666v29.334c0 6.62695 5.37305 12 12 12h24c6.62695 0 12 -5.37305 12 -12v-29.334
c100.115 -11.0693 179.597 -90.5508 190.666 -190.666h29.334zM280 25.6992c73.5322 10.4551 131.84 68.7275 142.301 142.301h-42.3008c-6.62695 0 -12 5.37305 -12 12v24c0 6.62695 5.37305 12 12 12h42.3008c-10.4551 73.5322 -68.7275 131.84 -142.301 142.301v-42.3008
c0 -6.62695 -5.37305 -12 -12 -12h-24c-6.62695 0 -12 5.37305 -12 12v42.3008c-73.5322 -10.4551 -131.84 -68.7275 -142.301 -142.301h42.3008c6.62695 0 12 -5.37305 12 -12v-24c0 -6.62695 -5.37305 -12 -12 -12h-42.3008
c10.4551 -73.5322 68.7275 -131.84 142.301 -142.301v42.3008c0 6.62695 5.37305 12 12 12h24c6.62695 0 12 -5.37305 12 -12v-42.3008zM288 192c0 -17.6729 -14.3271 -32 -32 -32s-32 14.3271 -32 32s14.3271 32 32 32s32 -14.3271 32 -32z" />
    <glyph glyph-name="ban" unicode="&#xf05e;" 
d="M256 440c136.967 0 248 -111.033 248 -248s-111.033 -248 -248 -248s-248 111.033 -248 248s111.033 248 248 248zM397.421 333.421c-73.1562 73.1572 -187.277 77.0693 -264.865 15.9639l280.829 -280.829c61.0859 77.5645 57.2119 191.69 -15.9639 264.865z
M114.579 50.5791c73.1562 -73.1572 187.277 -77.0693 264.865 -15.9639l-280.829 280.829c-61.0859 -77.5645 -57.2119 -191.69 15.9639 -264.865z" />
    <glyph glyph-name="arrow-left" unicode="&#xf060;" horiz-adv-x="448" 
d="M229.9 -25.8994c-4.6875 -4.68652 -12.2852 -4.68652 -16.9717 -0.000976562l-209.414 209.414c-4.68555 4.6875 -4.68555 12.2852 0 16.9717l209.414 209.414c4.6875 4.68555 12.2852 4.68555 16.9717 0l19.7988 -19.7988c4.68555 -4.68652 4.68555 -12.2842 0 -16.9707
l-155.13 -155.13h341.431c6.62695 0 12 -5.37305 12 -12v-28c0 -6.62695 -5.37305 -12 -12 -12h-341.431l155.13 -155.129c4.68555 -4.6875 4.68555 -12.2852 0 -16.9707z" />
    <glyph glyph-name="arrow-right" unicode="&#xf061;" horiz-adv-x="448" 
d="M218.101 409.899c4.68652 4.68652 12.2842 4.68652 16.9707 0l209.415 -209.414c4.68555 -4.6875 4.68555 -12.2852 0 -16.9717l-209.414 -209.414c-4.6875 -4.68555 -12.2852 -4.68555 -16.9717 0l-19.7988 19.7998c-4.68555 4.68652 -4.68555 12.2842 0 16.9707
l155.13 155.13h-341.432c-6.62695 0 -12 5.37305 -12 12v28c0 6.62695 5.37305 12 12 12h341.432l-155.13 155.129c-4.68555 4.6875 -4.68555 12.2852 0 16.9707z" />
    <glyph glyph-name="arrow-up" unicode="&#xf062;" horiz-adv-x="448" 
d="M6.10059 186.101c-4.68652 4.68652 -4.68652 12.2842 0 16.9707l209.413 209.414c4.6875 4.68555 12.2852 4.68555 16.9717 0l209.415 -209.413c4.68555 -4.6875 4.68555 -12.2852 0 -16.9717l-19.7998 -19.7988c-4.68652 -4.68555 -12.2842 -4.68555 -16.9707 0
l-155.13 155.13v-341.432c0 -6.62695 -5.37305 -12 -12 -12h-28c-6.62695 0 -12 5.37305 -12 12v341.432l-155.129 -155.13c-4.6875 -4.68555 -12.2852 -4.68555 -16.9707 0z" />
    <glyph glyph-name="arrow-down" unicode="&#xf063;" horiz-adv-x="448" 
d="M441.9 197.9c4.69922 -4.7002 4.69922 -12.3008 0 -17l-209.4 -209.4c-4.7002 -4.7002 -12.2998 -4.7002 -17 0l-209.4 209.4c-4.69922 4.69922 -4.69922 12.2998 0 17l19.8008 19.7998c4.69922 4.7002 12.2998 4.7002 17 0l155.1 -155.101v341.4
c0 6.59961 5.40039 12 12 12h28c6.59961 0 12 -5.40039 12 -12v-341.4l155.1 155.101c4.7002 4.7002 12.3008 4.7002 17 0z" />
    <glyph glyph-name="share" unicode="&#xf064;" horiz-adv-x="576" 
d="M561.938 257.94c18.75 -18.7402 18.75 -49.1406 -0.00195312 -67.8809l-175.996 -175.939c-30.21 -30.21 -81.9404 -8.7002 -81.9404 33.9395v78.2803c-146.59 -8.54004 -158.53 -50.1992 -134.18 -127.879c13.6494 -43.5596 -35.0703 -78.8896 -72.1904 -54.46
c-59.6104 39.2305 -97.6299 100.199 -97.6299 173.949c0 170.37 166.04 197.149 304 201.3v80.7031c0 42.7197 51.79 64.0898 81.9404 33.9395zM352 48l176 176l-176 176v-128.03c-143.181 -0.629883 -304 -11.7773 -304 -154.02c0 -66.96 40 -109.95 76.0195 -133.65
c-49.46 157.789 63.459 189.82 227.98 191.61v-127.91z" />
    <glyph glyph-name="expand" unicode="&#xf065;" horiz-adv-x="448" 
d="M0 268v124c0 13.2998 10.7002 24 24 24h124c6.59961 0 12 -5.40039 12 -12v-24c0 -6.59961 -5.40039 -12 -12 -12h-100v-100c0 -6.59961 -5.40039 -12 -12 -12h-24c-6.59961 0 -12 5.40039 -12 12zM288 404c0 6.59961 5.40039 12 12 12h124c13.2998 0 24 -10.7002 24 -24
v-124c0 -6.59961 -5.40039 -12 -12 -12h-24c-6.59961 0 -12 5.40039 -12 12v100h-100c-6.59961 0 -12 5.40039 -12 12v24zM436 128c6.59961 0 12 -5.40039 12 -12v-124c0 -13.2998 -10.7002 -24 -24 -24h-124c-6.59961 0 -12 5.40039 -12 12v24c0 6.59961 5.40039 12 12 12
h100v100c0 6.59961 5.40039 12 12 12h24zM160 -20c0 -6.59961 -5.40039 -12 -12 -12h-124c-13.2998 0 -24 10.7002 -24 24v124c0 6.59961 5.40039 12 12 12h24c6.59961 0 12 -5.40039 12 -12v-100h100c6.59961 0 12 -5.40039 12 -12v-24z" />
    <glyph glyph-name="compress" unicode="&#xf066;" horiz-adv-x="448" 
d="M436 256h-124c-13.2998 0 -24 10.7002 -24 24v124c0 6.59961 5.40039 12 12 12h24c6.59961 0 12 -5.40039 12 -12v-100h100c6.59961 0 12 -5.40039 12 -12v-24c0 -6.59961 -5.40039 -12 -12 -12zM160 280c0 -13.2998 -10.7002 -24 -24 -24h-124
c-6.59961 0 -12 5.40039 -12 12v24c0 6.59961 5.40039 12 12 12h100v100c0 6.59961 5.40039 12 12 12h24c6.59961 0 12 -5.40039 12 -12v-124zM160 -20c0 -6.59961 -5.40039 -12 -12 -12h-24c-6.59961 0 -12 5.40039 -12 12v100h-100c-6.59961 0 -12 5.40039 -12 12v24
c0 6.59961 5.40039 12 12 12h124c13.2998 0 24 -10.7002 24 -24v-124zM336 -20c0 -6.59961 -5.40039 -12 -12 -12h-24c-6.59961 0 -12 5.40039 -12 12v124c0 13.2998 10.7002 24 24 24h124c6.59961 0 12 -5.40039 12 -12v-24c0 -6.59961 -5.40039 -12 -12 -12h-100v-100z
" />
    <glyph glyph-name="plus" unicode="&#xf067;" horiz-adv-x="384" 
d="M368 224c8.83984 0 16 -7.16016 16 -16v-32c0 -8.83984 -7.16016 -16 -16 -16h-144v-144c0 -8.83984 -7.16016 -16 -16 -16h-32c-8.83984 0 -16 7.16016 -16 16v144h-144c-8.83984 0 -16 7.16016 -16 16v32c0 8.83984 7.16016 16 16 16h144v144
c0 8.83984 7.16016 16 16 16h32c8.83984 0 16 -7.16016 16 -16v-144h144z" />
    <glyph glyph-name="minus" unicode="&#xf068;" horiz-adv-x="384" 
d="M368 224c8.83984 0 16 -7.16016 16 -16v-32c0 -8.83984 -7.16016 -16 -16 -16h-352c-8.83984 0 -16 7.16016 -16 16v32c0 8.83984 7.16016 16 16 16h352z" />
    <glyph glyph-name="asterisk" unicode="&#xf069;" 
d="M479.31 90.7842c5.73926 -3.31348 7.70605 -10.6533 4.39258 -16.3926l-12 -20.7832c-3.31445 -5.73926 -10.6523 -7.70605 -16.3926 -4.39258l-175.31 101.215v-202.431c0 -6.62695 -5.37305 -12 -12 -12h-24c-6.62695 0 -12 5.37305 -12 12v202.431l-175.31 -101.215
c-5.73926 -3.31348 -13.0781 -1.34668 -16.3926 4.39258l-12 20.7832c-3.31348 5.73926 -1.34766 13.0781 4.39258 16.3926l175.31 101.216l-175.31 101.216c-5.73926 3.31348 -7.70605 10.6523 -4.39258 16.3926l12 20.7842
c3.31348 5.73926 10.6523 7.70605 16.3926 4.39258l175.31 -101.216v202.431c0 6.62695 5.37305 12 12 12h24c6.62695 0 12 -5.37305 12 -12v-202.431l175.309 101.215c5.73926 3.31348 13.0781 1.34766 16.3926 -4.39258l12 -20.7842
c3.31348 -5.73926 1.34766 -13.0781 -4.39258 -16.3926l-175.31 -101.215z" />
    <glyph glyph-name="exclamation-circle" unicode="&#xf06a;" 
d="M256 440c136.957 0 248 -111.083 248 -248c0 -136.997 -111.043 -248 -248 -248s-248 111.003 -248 248c0 136.917 111.043 248 248 248zM256 -8c110.569 0 200 89.4697 200 200c0 110.529 -89.5088 200 -200 200c-110.528 0 -200 -89.5049 -200 -200
c0 -110.569 89.4678 -200 200 -200zM298 96c0 -23.1592 -18.8408 -42 -42 -42s-42 18.8408 -42 42s18.8408 42 42 42s42 -18.8408 42 -42zM216.63 307.401c-0.342773 6.85352 5.12207 12.5986 11.9854 12.5986h54.7695c6.86328 0 12.3281 -5.74512 11.9854 -12.5986
l-6.7998 -136c-0.319336 -6.3877 -5.5918 -11.4014 -11.9854 -11.4014h-41.1699c-6.39355 0 -11.666 5.01367 -11.9854 11.4014z" />
    <glyph glyph-name="gift" unicode="&#xf06b;" 
d="M464 304c26.5 0 48 -21.5 48 -48v-128c0 -8.7998 -7.2002 -16 -16 -16h-16v-107.4c0 -29 -23.5996 -52.5996 -52.5996 -52.5996h-342.801c-29 0 -52.5996 23.5996 -52.5996 52.5996v107.4h-16c-8.7998 0 -16 7.2002 -16 16v128c0 26.5 21.5 48 48 48h28.0996
c-6.2998 12.0996 -10.0996 25.5 -10.0996 40c0 48.5 39.5 88 88 88c41.5996 0 68.5 -21.2998 103 -68.2998c34.5 47 61.4004 68.2998 103 68.2998c48.5 0 88 -39.5 88 -88c0 -14.5 -3.90039 -27.9004 -10.0996 -40h26.0996zM232 0v256h-184v-96h144v-48h-112v-107.4
c0 -2.59961 2.09961 -4.59961 4.59961 -4.59961h147.4zM153.9 304h86.0996l-2 3c-46.5996 69.4004 -62.0996 77 -84.0996 77c-22.1006 0 -40 -17.9004 -40 -40s17.8994 -40 40 -40zM275.9 307l-2 -3h86.0996c22.0996 0 40 17.9004 40 40s-17.9004 40 -40 40
c-22 0 -37.5 -7.59961 -84.0996 -77zM464 160v96h-184v-256h147.4c2.59961 0 4.59961 2.09961 4.59961 4.59961v107.4h-112v48h144z" />
    <glyph glyph-name="leaf" unicode="&#xf06c;" horiz-adv-x="576" 
d="M546.2 438.3c19 -42.3994 29.7998 -94.3994 29.7998 -144.6c0 -172.4 -110.5 -313.2 -267.6 -324.601c-76.9004 -8.09961 -147.9 29.9004 -185.5 93.1006c-55.3008 -52.6006 -75.9004 -109 -76.3008 -110.101c-3.7998 -11 -16.5 -19.5996 -30.5 -14.7998
c-12.5 4.2998 -19.0996 18 -14.7998 30.5c0.5 1.40039 27.7002 76.5 101.8 141c-4.5 16.2998 -7.09961 33.4004 -7.09961 51.2002c0 106 86 192 192 192h80c63.4004 0 118.9 33.5996 149.9 87.5c3.2998 5.7002 8.69922 8.5 14 8.5
c5.69922 0 11.3994 -3.2002 14.2998 -9.7002zM303.4 16.7998c130.8 9.5 224.6 125.9 224.699 276.9c0 23.7002 -2.7998 48 -8 71.2002c-40.3994 -38.9004 -94.0996 -60.9004 -152 -60.9004h-80c-79.3994 0 -144 -64.5996 -144 -144c0 -6.59961 1.10059 -13 2 -19.4004
c52.9004 33.9004 122.7 59.4004 214 59.4004c13.2002 0 24 -10.7998 24 -24s-10.7998 -24 -24 -24c-86.8994 0 -151.5 -25.7998 -198.899 -58.7002c11.5996 -22 56.0996 -85.5996 142.2 -76.5z" />
    <glyph glyph-name="fire" unicode="&#xf06d;" horiz-adv-x="384" 
d="M216 423.99c0 -103.141 168 -125.7 168 -295.99c0 -105.87 -86.1299 -192 -192 -192s-192 86.1299 -192 192c0 62.7197 30.75 121.62 82.2695 157.55c15.8701 11.0801 37.7305 -0.290039 37.7305 -19.6797v-105.87c0 -22.0596 17.9404 -40 40 -40s40 17.9404 40 40
c0 49.2695 -123.45 129.75 -28.1504 277.03c12.9902 20.0693 44.1504 10.7598 44.1504 -13.04zM192 -16c79.4004 0 144 64.5996 144 144c0 118.23 -112 152 -152 240c-24 -88 64 -143.73 64 -208c0 -48.5195 -39.4805 -88 -88 -88s-88 39.4805 -88 88v56
c-15.4404 -23.29 -24 -59.3398 -24 -88c0 -79.4004 64.5996 -144 144 -144z" />
    <glyph glyph-name="eye" unicode="&#xf06e;" horiz-adv-x="576" 
d="M288 304c0.0927734 0 0.244141 0.000976562 0.336914 0.000976562c61.6641 0 111.71 -50.0469 111.71 -111.711c0 -61.6631 -50.0459 -111.71 -111.71 -111.71s-111.71 50.0469 -111.71 111.71c0 8.71289 1.95898 22.5781 4.37305 30.9502
c6.93066 -3.94141 19.0273 -7.18457 27 -7.24023c30.9121 0 56 25.0879 56 56c-0.0556641 7.97266 -3.29883 20.0693 -7.24023 27c8.42383 2.62207 22.4189 4.8623 31.2402 5zM572.52 206.6c1.9209 -3.79883 3.47949 -10.3379 3.47949 -14.5947
s-1.55859 -10.7959 -3.47949 -14.5947c-54.1992 -105.771 -161.59 -177.41 -284.52 -177.41s-230.29 71.5898 -284.52 177.4c-1.9209 3.79883 -3.47949 10.3379 -3.47949 14.5947s1.55859 10.7959 3.47949 14.5947c54.1992 105.771 161.59 177.41 284.52 177.41
s230.29 -71.5898 284.52 -177.4zM288 48c98.6602 0 189.1 55 237.93 144c-48.8398 89 -139.27 144 -237.93 144s-189.09 -55 -237.93 -144c48.8398 -89 139.279 -144 237.93 -144z" />
    <glyph glyph-name="eye-slash" unicode="&#xf070;" horiz-adv-x="640" 
d="M634 -23c3.31738 -2.65137 6.00977 -8.25098 6.00977 -12.498c0 -3.10449 -1.57715 -7.58984 -3.51953 -10.0117l-10 -12.4902c-2.65234 -3.31152 -8.24707 -6 -12.4902 -6c-3.09961 0 -7.58008 1.57227 -10 3.50977l-598 467.49
c-3.31738 2.65137 -6.00977 8.25098 -6.00977 12.498c0 3.10449 1.57715 7.58984 3.51953 10.0117l10 12.4902c2.65234 3.31152 8.24707 6 12.4902 6c3.09961 0 7.58008 -1.57227 10 -3.50977zM296.79 301.53c6.33496 1.35059 16.7324 2.45801 23.21 2.46973
c60.4805 0 109.36 -47.9102 111.58 -107.85zM343.21 82.46c-6.33496 -1.34375 -16.7334 -2.44629 -23.21 -2.45996c-60.4697 0 -109.35 47.9102 -111.58 107.84zM320 336c-19.8799 0 -39.2803 -2.7998 -58.2197 -7.09961l-46.4102 36.29
c32.9199 11.8096 67.9297 18.8096 104.63 18.8096c122.93 0 230.29 -71.5898 284.57 -177.4c1.91992 -3.79883 3.47949 -10.3379 3.47949 -14.5947s-1.55957 -10.7959 -3.47949 -14.5947c-11.7197 -22.7598 -35.4189 -56.4092 -52.9004 -75.1104l-37.7402 29.5
c14.333 15.0156 34.0449 41.9854 44 60.2002c-48.8398 89 -139.279 144 -237.93 144zM320 48c19.8896 0 39.2803 2.7998 58.2197 7.08984l46.4102 -36.2803c-32.9199 -11.7598 -67.9297 -18.8096 -104.63 -18.8096c-122.92 0 -230.28 71.5898 -284.51 177.4
c-1.9209 3.79883 -3.47949 10.3379 -3.47949 14.5947s1.55859 10.7959 3.47949 14.5947c11.7168 22.7568 35.4111 56.4014 52.8896 75.1006l37.7402 -29.5c-14.3467 -15.0107 -34.0811 -41.9756 -44.0498 -60.1904c48.8496 -89 139.279 -144 237.93 -144z" />
    <glyph glyph-name="exclamation-triangle" unicode="&#xf071;" horiz-adv-x="576" 
d="M248.747 243.295c-0.405273 6.89355 5.0752 12.7051 11.9775 12.7051h54.5479c6.90332 0 12.3838 -5.81152 11.9785 -12.7051l-6.58789 -112c-0.367188 -6.23438 -5.7334 -11.2949 -11.9795 -11.2949h-41.3691c-6.35352 0 -11.6064 4.95215 -11.9795 11.2949zM330 64
c0 -23.1963 -18.8037 -42 -42 -42s-42 18.8037 -42 42s18.8037 42 42 42s42 -18.8037 42 -42zM329.577 424.015l239.939 -416.027c18.458 -31.9941 -4.71191 -71.9873 -41.5762 -71.9873h-479.887c-36.9355 0 -59.999 40.0537 -41.5771 71.9873l239.946 416.027
c18.4668 32.0098 64.7207 31.9512 83.1543 0zM53.1914 -7.00195c-2.30762 -4 0.580078 -8.99805 5.19629 -8.99707h459.225c4.61816 0 7.50488 4.99805 5.19629 8.99805l-229.611 397.993c-2.30957 4.00195 -8.08496 4.00195 -10.3945 0z" />
    <glyph glyph-name="plane" unicode="&#xf072;" horiz-adv-x="576" 
d="M239.57 400h-37.1406l50.29 -176h-116.72l-36 48h-41.3203l23.3203 -80l-23.3203 -80h41.3203l36 48h116.72l-50.29 -176h37.1406l100.569 176h115.86c26.0303 0 62.8701 19.7305 71.0996 32c-8.22949 12.2695 -45.0693 32 -71.0996 32h-115.86zM258.14 448
c5.12402 0 11.3477 -3.61133 13.8906 -8.05957l95.9697 -167.94h88c44.1797 0 120 -35.8096 120 -80c0 -44.1797 -75.8203 -80 -120 -80h-88l-95.9805 -167.94c-2.84961 -4.97949 -8.14941 -8.05957 -13.8896 -8.05957h-98.1299
c-10.6299 0 -18.2998 10.1797 -15.3799 20.4004l44.46 155.6h-29.0801l-31.2002 -41.5996c-3.01953 -4.03027 -7.75977 -6.40039 -12.7998 -6.40039h-99.9902c-10.4102 0 -18.0498 9.78027 -15.5195 19.8799l31.5098 108.12l-31.5098 108.12
c-2.53027 10.0996 5.10938 19.8799 15.5195 19.8799h99.9902c5.03027 0 9.78027 -2.37012 12.7998 -6.40039l31.2002 -41.5996h29.0801l-44.4502 155.61c-2.91992 10.2197 4.75 20.3896 15.3799 20.3896h98.1299z" />
    <glyph glyph-name="calendar-alt" unicode="&#xf073;" horiz-adv-x="448" 
d="M148 160h-40c-6.59961 0 -12 5.40039 -12 12v40c0 6.59961 5.40039 12 12 12h40c6.59961 0 12 -5.40039 12 -12v-40c0 -6.59961 -5.40039 -12 -12 -12zM256 172c0 -6.59961 -5.40039 -12 -12 -12h-40c-6.59961 0 -12 5.40039 -12 12v40c0 6.59961 5.40039 12 12 12h40
c6.59961 0 12 -5.40039 12 -12v-40zM352 172c0 -6.59961 -5.40039 -12 -12 -12h-40c-6.59961 0 -12 5.40039 -12 12v40c0 6.59961 5.40039 12 12 12h40c6.59961 0 12 -5.40039 12 -12v-40zM256 76c0 -6.59961 -5.40039 -12 -12 -12h-40c-6.59961 0 -12 5.40039 -12 12v40
c0 6.59961 5.40039 12 12 12h40c6.59961 0 12 -5.40039 12 -12v-40zM160 76c0 -6.59961 -5.40039 -12 -12 -12h-40c-6.59961 0 -12 5.40039 -12 12v40c0 6.59961 5.40039 12 12 12h40c6.59961 0 12 -5.40039 12 -12v-40zM352 76c0 -6.59961 -5.40039 -12 -12 -12h-40
c-6.59961 0 -12 5.40039 -12 12v40c0 6.59961 5.40039 12 12 12h40c6.59961 0 12 -5.40039 12 -12v-40zM448 336v-352c0 -26.5 -21.5 -48 -48 -48h-352c-26.5 0 -48 21.5 -48 48v352c0 26.5 21.5 48 48 48h48v52c0 6.59961 5.40039 12 12 12h40
c6.59961 0 12 -5.40039 12 -12v-52h128v52c0 6.59961 5.40039 12 12 12h40c6.59961 0 12 -5.40039 12 -12v-52h48c26.5 0 48 -21.5 48 -48zM400 -10v298h-352v-298c0 -3.2998 2.7002 -6 6 -6h340c3.2998 0 6 2.7002 6 6z" />
    <glyph glyph-name="random" unicode="&#xf074;" 
d="M505 48l-79.2002 -72.9004c-15.0996 -15.0996 -41.7998 -4.39941 -41.7998 17v40h-31c-3.2998 0 -6.5 1.40039 -8.7998 3.90039l-89.7998 97.2002l38.0996 41.2998l79.7998 -86.2998h11.7002v48c0 21.3994 26.7002 32.0996 41.7998 17l79.2002 -71
c9.2998 -9.60059 9.2998 -24.7998 0 -34.2002zM12 296c-6.59961 0 -12 5.40039 -12 12.0996v32c0 6.60059 5.40039 12 12 12h111.1c3.30078 0 6.5 -1.39941 8.80078 -3.89941l89.7998 -97.2002l-38.1006 -41.2998l-79.7998 86.2998h-91.7998zM505 337.9
c9.2998 -9.30078 9.2998 -24.5 0 -33.9004l-79.2002 -73c-15.0996 -15.0996 -41.7998 -4.40039 -41.7998 17v48h-11.7998l-240.4 -260.1c-2.2998 -2.5 -5.5 -3.90039 -8.7998 -3.90039h-111c-6.59961 0 -12 5.40039 -12 12v32c0 6.59961 5.40039 12 12 12h91.7998
l240.4 260.1c2.2998 2.5 5.5 3.90039 8.7998 3.90039h31v40c0 21.2998 26.7002 32 41.7998 16.9004z" />
    <glyph glyph-name="comment" unicode="&#xf075;" 
d="M256 416c141.4 0 256 -93.0996 256 -208s-114.6 -208 -256 -208c-32.7998 0 -64 5.2002 -92.9004 14.2998c-29.0996 -20.5996 -77.5996 -46.2998 -139.1 -46.2998c-9.59961 0 -18.2998 5.7002 -22.0996 14.5c-3.80078 8.7998 -2 19 4.59961 26
c0.5 0.400391 31.5 33.7998 46.4004 73.2002c-33 35.0996 -52.9004 78.7002 -52.9004 126.3c0 114.9 114.6 208 256 208zM256 48c114.7 0 208 71.7998 208 160s-93.2998 160 -208 160s-208 -71.7998 -208 -160c0 -42.2002 21.7002 -74.0996 39.7998 -93.4004
l20.6006 -21.7998l-10.6006 -28.0996c-5.5 -14.5 -12.5996 -28.1006 -19.8994 -40.2002c23.5996 7.59961 43.1992 18.9004 57.5 29l19.5 13.7998l22.6992 -7.2002c25.3008 -8 51.7002 -12.0996 78.4004 -12.0996z" />
    <glyph glyph-name="magnet" unicode="&#xf076;" 
d="M509.8 392.4c1.40039 -3.90039 2.2002 -8.10059 2.2002 -12.4004v-189.3c0 -150.7 -134.5 -246.7 -255.2 -246.7c-120.6 0 -256.8 96 -256.8 246.7v189.3c0 4.2998 0.799805 8.5 2.2002 12.4004c1.2002 3.2998 2.89941 6.39941 5 9.19922
c6.5 8.80078 17 14.5 28.7998 14.5h104c11.7998 0 22.2002 -5.69922 28.7998 -14.5c2.10059 -2.7998 3.7998 -5.89941 5 -9.19922c1.40039 -3.90039 2.2002 -8.10059 2.2002 -12.4004v-171.9c0 -64 40.0996 -96 80.0996 -96c39.9004 0 79.9004 32 79.9004 96v172
c0 5.60059 1.2002 10.9004 3.5 15.6006c0.799805 1.59961 1.59961 3.09961 2.59961 4.5c6.5 9.59961 17.5 15.8994 29.9004 15.8994h104c11.7998 0 22.2002 -5.69922 28.7998 -14.5c2.10059 -2.7998 3.7998 -5.89941 5 -9.19922zM464 190.7v81.2002h-80v-64
c0 -53.1006 -20.7002 -86.3008 -38 -104.801c-11.9004 -12.6992 -26 -22.5 -41.7998 -29.2998c-15.2998 -6.5 -31.5 -9.7998 -48.2002 -9.7998c-16.5996 0 -32.9004 3.40039 -48.2002 9.90039c-15.7998 6.69922 -29.8994 16.5996 -41.7998 29.2998
c-17.2998 18.5 -38 51.7002 -38 104.8v64h-80v-81.2998c0 -28.7998 6.2002 -56.1006 18.2002 -81.2002c11.3994 -23.4004 27.7002 -44.4004 48.3994 -62.5c39.5 -34.4004 92.6006 -55 142.101 -55c24 0 49.5 4.90039 73.5996 14.2002
c24.7002 9.5 48.1006 23.5 67.6006 40.7002c20.5996 18.0996 36.6992 39.0996 47.8994 62.5c12.1006 25.0996 18.2002 52.3994 18.2002 81.2998z" />
    <glyph glyph-name="chevron-up" unicode="&#xf077;" horiz-adv-x="448" 
d="M6.10059 88.707c-4.68652 4.68555 -4.68652 12.2842 0 16.9707l209.413 209.414c4.6875 4.68652 12.2852 4.68652 16.9717 0l209.415 -209.413c4.68555 -4.68652 4.68555 -12.2852 0 -16.9707l-19.7998 -19.7988c-4.68652 -4.68652 -12.2842 -4.68652 -16.9707 0
l-181.13 180.698l-181.129 -180.699c-4.6875 -4.68652 -12.2852 -4.68652 -16.9707 0z" />
    <glyph glyph-name="chevron-down" unicode="&#xf078;" horiz-adv-x="448" 
d="M441.9 280.7c4.69922 -4.7002 4.69922 -12.2998 0 -17l-209.4 -209.4c-4.7002 -4.7002 -12.2998 -4.7002 -17 0l-209.4 209.4c-4.69922 4.7002 -4.69922 12.2998 0 17l19.8008 19.7998c4.69922 4.7002 12.2998 4.7002 17 0l181.1 -180.7l181.1 180.7
c4.7002 4.7002 12.3008 4.7002 17 0z" />
    <glyph glyph-name="retweet" unicode="&#xf079;" horiz-adv-x="640" 
d="M624.485 94.5439l-104 -104c-4.68652 -4.68555 -12.2842 -4.68555 -16.9717 0l-104 104c-4.68555 4.68652 -4.68555 12.2842 0 16.9707l16.877 16.877c4.72363 4.72363 12.3936 4.68164 17.0645 -0.09375l54.5449 -55.7627v223.465h-203.976h-0.00195312
c-2.74316 0 -6.54395 1.5752 -8.4834 3.51465l-24 24c-7.56055 7.56055 -2.20605 20.4854 8.48535 20.4854h251.976c13.2549 0 24 -10.7451 24 -24v-247.465l54.5449 55.7617c4.6709 4.77539 12.3408 4.81738 17.0645 0.09375l16.877 -16.877
c4.68555 -4.68555 4.68555 -12.2832 -0.000976562 -16.9697zM364.461 84.4854l24 -24c7.56055 -7.55957 2.20605 -20.4854 -8.48535 -20.4854h-251.976c-13.2549 0 -24 10.7451 -24 24v247.465l-54.5439 -55.7617c-4.6709 -4.77539 -12.3408 -4.81738 -17.0645 -0.09375
l-16.877 16.877c-4.68555 4.68652 -4.68555 12.2852 0 16.9707l104 104c4.6875 4.68555 12.2852 4.68555 16.9717 0l104 -104c4.68555 -4.6875 4.68555 -12.2852 0 -16.9707l-16.877 -16.877c-4.72363 -4.72363 -12.3936 -4.68164 -17.0645 0.09375l-54.5449 55.7617
v-223.465h203.976c2.74414 0 6.54492 -1.5752 8.48535 -3.51465z" />
    <glyph glyph-name="shopping-cart" unicode="&#xf07a;" horiz-adv-x="576" 
d="M551.991 384c15.3076 0 26.7041 -14.1387 23.4521 -29.0977l-45.2168 -208c-2.39746 -11.0332 -12.1611 -18.9023 -23.4512 -18.9023h-312.405l9.38965 -48h282.148c15.3096 0 26.7061 -14.1406 23.4521 -29.1006l-1.03516 -4.75781
c12.1201 -11.6455 19.6758 -28.0059 19.6758 -46.1416c0 -35.3457 -28.6543 -64 -64 -64s-64 28.6543 -64 64v0.0703125c0 9.44922 3.84473 23.7539 8.58301 31.9297h-145.167c4.73828 -8.17578 8.58301 -22.4805 8.58301 -31.9297v-0.0703125
c0 -35.3457 -28.6543 -64 -64 -64s-64 28.6543 -64 64c0 17.1982 6.7959 32.7988 17.834 44.2988l-69.5938 355.701h-80.2402c-6.62695 0 -12 5.37305 -12 12v24c0 6.62695 5.37305 12 12 12h100c11.4775 0 21.3496 -8.12793 23.5537 -19.3916l8.72656 -44.6084h407.711z
M208 -24c13.2344 0 24 10.7656 24 24s-10.7656 24 -24 24s-24 -10.7656 -24 -24s10.7656 -24 24 -24zM464 -24c13.2344 0 24 10.7656 24 24s-10.7656 24 -24 24s-24 -10.7656 -24 -24s10.7656 -24 24 -24zM487.438 176l34.7793 160h-368.548l31.3105 -160h302.458z" />
    <glyph glyph-name="folder" unicode="&#xf07b;" 
d="M464 320c26.5098 0 48 -21.4902 48 -48v-224c0 -26.5098 -21.4902 -48 -48 -48h-416c-26.5098 0 -48 21.4902 -48 48v288c0 26.5098 21.4902 48 48 48h146.74c8.49023 0 16.6299 -3.37012 22.6299 -9.37012l54.6299 -54.6299h192zM464 48v224h-198.62
c-8.49023 0 -16.6299 3.37012 -22.6299 9.37012l-54.6299 54.6299h-140.12v-288h416z" />
    <glyph glyph-name="folder-open" unicode="&#xf07c;" horiz-adv-x="576" 
d="M527.9 224c37.6992 0 60.6992 -41.5 40.6992 -73.4004l-79.8994 -128c-8.7998 -14.0996 -24.2002 -22.5996 -40.7002 -22.5996h-400c-26.5 0 -48 21.5 -48 48v288c0 26.5 21.5 48 48 48h160l64 -64h160c26.5 0 48 -21.5 48 -48v-48h47.9004zM48 330v-233.4l62.9004 104.2
c8.69922 14.4004 24.2998 23.2002 41.0996 23.2002h280v42c0 3.2998 -2.7002 6 -6 6h-173.9l-64 64h-134.1c-3.2998 0 -6 -2.7002 -6 -6zM448 48l80 128h-378.8l-77.2002 -128h376z" />
    <glyph glyph-name="arrows-v" unicode="&#xf07d;" horiz-adv-x="320" 
d="M273.1 100.6l19.7002 -19.5996c4.7002 -4.7002 4.7002 -12.2998 0 -17l-124.3 -124.5c-4.7002 -4.7002 -12.2998 -4.7002 -17 0l-124.3 124.5c-4.7002 4.7002 -4.7002 12.2998 0 17l19.5996 19.5996c4.7002 4.7002 12.4004 4.60059 17.1006 -0.199219l70 -73.2002v329.6
l-70 -73.2002c-4.60059 -4.89941 -12.3008 -5 -17.1006 -0.199219l-19.5996 19.5996c-4.7002 4.7002 -4.7002 12.2998 0 17l124.3 124.5c4.7002 4.7002 12.2998 4.7002 17 0l124.2 -124.5c4.7002 -4.7002 4.7002 -12.2998 0 -17l-19.6006 -19.5996
c-4.69922 -4.7002 -12.3994 -4.60059 -17.0996 0.199219l-70 73.2002v-329.6l70 73.2002c4.59961 4.89941 12.2998 5 17.0996 0.199219z" />
    <glyph glyph-name="arrows-h" unicode="&#xf07e;" 
d="M347.404 305.14l19.625 19.626c4.68652 4.68652 12.2852 4.68652 16.9707 0l124.486 -124.279c4.68555 -4.6875 4.68555 -12.2852 0 -16.9717l-124.485 -124.28c-4.68652 -4.68652 -12.2852 -4.68652 -16.9707 0l-19.626 19.626
c-4.75391 4.75293 -4.67676 12.4834 0.172852 17.1396l73.2031 70h-329.561l73.2041 -70c4.84863 -4.65625 4.92578 -12.3867 0.172852 -17.1396l-19.626 -19.626c-4.68652 -4.68652 -12.2852 -4.68652 -16.9707 0l-124.485 124.279
c-4.68555 4.6875 -4.68555 12.2852 0 16.9717l124.484 124.28c4.68652 4.68652 12.2852 4.68652 16.9707 0l19.626 -19.626c4.75391 -4.75293 4.67676 -12.4834 -0.172852 -17.1396l-73.2031 -70h329.561l-73.2031 70c-4.84863 4.65625 -4.92578 12.3867 -0.172852 17.1396z
" />
    <glyph glyph-name="chart-bar" unicode="&#xf080;" 
d="M396.8 96c-6.39941 0 -12.7998 6.40039 -12.7998 12.7998v230.4c0 6.39941 6.40039 12.7998 12.7998 12.7998h22.4004c6.39941 0 12.7998 -6.40039 12.7998 -12.7998v-230.4c0 -6.39941 -6.40039 -12.7998 -12.7998 -12.7998h-22.4004zM204.8 96
c-6.39941 0 -12.7998 6.40039 -12.7998 12.7998v198.4c0 6.39941 6.40039 12.7998 12.7998 12.7998h22.4004c6.39941 0 12.7998 -6.40039 12.7998 -12.7998v-198.4c0 -6.39941 -6.40039 -12.7998 -12.7998 -12.7998h-22.4004zM300.8 96
c-6.39941 0 -12.7998 6.40039 -12.7998 12.7998v134.4c0 6.39941 6.40039 12.7998 12.7998 12.7998h22.4004c6.39941 0 12.7998 -6.40039 12.7998 -12.7998v-134.4c0 -6.39941 -6.40039 -12.7998 -12.7998 -12.7998h-22.4004zM496 48c8.83984 0 16 -7.16016 16 -16v-16
c0 -8.83984 -7.16016 -16 -16 -16h-464c-17.6699 0 -32 14.3301 -32 32v336c0 8.83984 7.16016 16 16 16h16c8.83984 0 16 -7.16016 16 -16v-320h448zM108.8 96c-6.39941 0 -12.7998 6.40039 -12.7998 12.7998v70.4004c0 6.39941 6.40039 12.7998 12.7998 12.7998h22.4004
c6.39941 0 12.7998 -6.40039 12.7998 -12.7998v-70.4004c0 -6.39941 -6.40039 -12.7998 -12.7998 -12.7998h-22.4004z" />
    <glyph glyph-name="camera-retro" unicode="&#xf083;" 
d="M154 368h-116c-3.2998 0 -6 2.7002 -6 6v36c0 3.2998 2.7002 6 6 6h116c3.2998 0 6 -2.7002 6 -6v-36c0 -3.2998 -2.7002 -6 -6 -6zM512 368v-352c0 -26.5 -21.5 -48 -48 -48h-416c-26.5 0 -48 21.5 -48 48v288c0 26.5 21.5 48 48 48h136l33.5996 44.7998
c9.10059 12.1006 23.3008 19.2002 38.4004 19.2002h208c26.5 0 48 -21.5 48 -48zM464 304h-416v-288h416v288zM464 368h-208l-12 -16h220v16zM376 160c0 -66.2002 -53.7998 -120 -120 -120s-120 53.7998 -120 120s53.7998 120 120 120s120 -53.7998 120 -120zM328 160
c0 39.7002 -32.2998 72 -72 72s-72 -32.2998 -72 -72s32.2998 -72 72 -72s72 32.2998 72 72zM232 160c0 -8.7998 -7.2002 -16 -16 -16s-16 7.2002 -16 16c0 30.9004 25.0996 56 56 56c8.7998 0 16 -7.2002 16 -16s-7.2002 -16 -16 -16c-13.2002 0 -24 -10.7998 -24 -24z" />
    <glyph glyph-name="key" unicode="&#xf084;" 
d="M320 400c-79.5293 0 -144 -64.4707 -144 -144v-0.105469c0 -11.7666 2.76758 -30.4561 6.17676 -41.7178l-134.177 -134.177v-96h96v48h48v48h32l42.3398 42.3389c16.584 -6.66406 34.6924 -10.3389 53.6602 -10.3389c79.5293 0 144 64.4707 144 144
s-64.4707 144 -144 144zM320 448c106.046 0 192 -85.9648 192 -192c0 -106.046 -85.9648 -192 -192 -192c-13.5391 0 -26.8936 1.39648 -39.9512 4.16699l-40.0488 -40.167v-20c0 -13.2549 -10.7451 -24 -24 -24h-24v-24c0 -13.2549 -10.7451 -24 -24 -24h-144
c-13.2549 0 -24 10.7451 -24 24v129.941c0 5.4873 3.14941 13.0898 7.0293 16.9707l122.77 122.77c-1.19727 8.69531 -1.79883 17.4863 -1.79883 26.3184c0 106.046 85.9648 192 192 192zM320 304c0 26.5098 21.4902 48 48 48s48 -21.4902 48 -48s-21.4902 -48 -48 -48
s-48 21.4902 -48 48z" />
    <glyph glyph-name="cogs" unicode="&#xf085;" horiz-adv-x="640" 
d="M217.1 -30.0996c-23.7998 0 -41.5996 3.5 -57.5 7.5c-10.5996 2.69922 -18.0996 12.2998 -18.0996 23.2998v31.7002c-9.40039 4.39941 -18.4004 9.59961 -26.9004 15.5996l-26.6992 -15.4004c-9.60059 -5.59961 -21.9004 -3.7998 -29.5 4.30078
c-35.4004 37.5996 -44.2002 58.5996 -57.2002 98.5c-3.60059 10.8994 1.09961 22.6992 11 28.3994l26.7998 15c-0.900391 10.2998 -0.900391 20.7002 0 31.1006l-26.7998 15.0996c-10 5.59961 -14.6006 17.5 -11 28.4004c13.0996 40 21.8994 60.8994 57.2002 98.5
c7.59961 8.09961 19.7998 9.89941 29.5 4.2998l26.6992 -15.4004c8.5 6 17.5 11.2002 26.9004 15.6006v30.1992c0 11.1006 7.59961 20.8008 18.4004 23.3008c44.1992 10.5 70 10.5 114.3 0c10.7998 -2.60059 18.3994 -12.2002 18.3994 -23.3008v-30.3994
c9.40039 -4.40039 18.4004 -9.60059 26.9004 -15.6006l26.7002 15.4004c9.7002 5.59961 21.8994 3.7002 29.5996 -4.40039c26.1006 -27.8994 48.4004 -58.5 56.7998 -100.3c2 -9.7998 -2.39941 -19.7998 -10.8994 -25.0996l-26.6006 -16.5
c0.900391 -10.2998 0.900391 -20.7002 0 -31.1006l26.6006 -16.5c8.39941 -5.19922 12.8994 -15.1992 10.8994 -24.8994c-8.09961 -40.5 -29.5996 -71.2998 -56.8994 -100.601c-7.60059 -8.09961 -19.7998 -9.89941 -29.5 -4.2998l-26.7002 15.4004
c-8.5 -6 -17.5 -11.2002 -26.9004 -15.6006v-31.6992c0 -11 -7.39941 -20.6006 -18.0996 -23.3008c-15.7998 -3.7998 -33.5996 -7.19922 -57.4004 -7.19922zM189.5 20.5996c18.2998 -2.89941 36.9004 -2.89941 55.0996 0v44.8008l16 5.69922
c15.2002 5.40039 29.1006 13.4004 41.3008 23.9004l12.8994 11l38.7998 -22.4004c11.7002 14.4004 21 30.5 27.6006 47.7002l-38.7998 22.4004l3.09961 16.7002c2.90039 15.8994 2.90039 32 0 47.8994l-3.09961 16.7002l38.7998 22.4004
c-6.60059 17.1992 -15.9004 33.2998 -27.6006 47.6992l-38.7998 -22.3994l-12.8994 11c-12.3008 10.5 -26.2002 18.5996 -41.3008 23.8994l-16 5.7002v44.7002c-18.2998 2.90039 -36.8994 2.90039 -55.0996 0v-44.7998l-16 -5.7002
c-15.2002 -5.40039 -29.0996 -13.4004 -41.2998 -23.9004l-12.9004 -11l-38.7998 22.4004c-11.7002 -14.4004 -21 -30.5 -27.5996 -47.7002l38.7998 -22.3994l-3.10059 -16.7002c-2.89941 -15.9004 -2.89941 -32 0 -47.9004l3.10059 -16.7002l-38.7998 -22.3994
c6.59961 -17.2002 15.8994 -33.4004 27.5996 -47.7002l38.7998 22.4004l12.9004 -11c12.2998 -10.5 26.2002 -18.6006 41.2998 -23.9004l16 -5.7002v-44.7002zM216.6 105.7c-22.5996 0 -45.1992 8.59961 -62.3994 25.7998c-34.4004 34.4004 -34.4004 90.4004 0 124.8
c34.3994 34.4004 90.3994 34.4004 124.8 0c34.4004 -34.3994 34.4004 -90.3994 0 -124.8c-17.2998 -17.2002 -39.9004 -25.7998 -62.4004 -25.7998zM216.6 234.1c-10.2998 0 -20.5996 -3.89941 -28.5 -11.7998c-15.6992 -15.7002 -15.6992 -41.2002 0 -56.8994
c15.7002 -15.7002 41.2002 -15.7002 56.9004 0c15.7002 15.6992 15.7002 41.1992 0 56.8994c-7.7998 7.90039 -18.0996 11.7998 -28.4004 11.7998zM638.5 363c2 -11.7998 2 -24 0.0996094 -36.2002c-0.899414 -5.89941 -6 -10.2002 -11.8994 -10.2002h-16.1006
c-3.5 -9.89941 -8.7998 -19 -15.5 -26.7998l8 -13.8994c3 -5.10059 1.80078 -11.6006 -2.69922 -15.3008c-9.30078 -7.69922 -19.9004 -13.8994 -31.4004 -18.1992c-5.5 -2 -11.7002 0.199219 -14.7002 5.2998l-8 13.8994c-10.2002 -1.89941 -20.7002 -1.89941 -30.8994 0
l-8 -13.8994c-2.90039 -5.2002 -9.2002 -7.40039 -14.7002 -5.2998c-11.5 4.2998 -22.1006 10.5 -31.4004 18.1992c-4.5 3.7002 -5.59961 10.2002 -2.7002 15.3008l8 13.8994c-6.69922 7.7998 -12 16.9004 -15.5 26.7998h-16.0996c-5.90039 0 -10.9004 4.2002 -11.9004 10
c-1.89941 11.7002 -2 24 0 36.2002c0.900391 5.90039 6 10.2002 11.9004 10.2002h16.0996c3.5 9.90039 8.80078 19 15.5 26.7998l-8 13.9004c-3 5.09961 -1.7998 11.5996 2.7002 15.2998c9.2998 7.7002 19.9004 13.9004 31.4004 18.2002
c5.5 2 11.7002 -0.200195 14.7002 -5.2998l8 -13.9004c10.1992 1.90039 20.6992 1.90039 30.8994 0l8 13.9004c2.90039 5.19922 9.2002 7.39941 14.7002 5.2998c11.5 -4.2998 22 -10.5 31.2998 -18.2002c4.5 -3.7002 5.60059 -10.2002 2.7002 -15.2998l-8 -13.9004
c6.7002 -7.7998 12 -16.8994 15.5 -26.7998h16.0996c5.90039 0 10.9004 -4.2002 11.9004 -10zM530.7 312.8c17.7002 0 32 14.2998 32 32s-14.2998 32 -32 32s-32 -14.2998 -32 -32s14.2998 -32 32 -32zM638.5 57.4004c2 -11.8008 2 -24.1006 0 -36.2002
c-0.900391 -5.90039 -6 -10.2002 -11.9004 -10.2002h-16.0996c-3.5 -9.90039 -8.7998 -19 -15.5 -26.7998l8 -13.9004c3 -5.09961 1.7998 -11.5996 -2.7002 -15.2998c-9.2998 -7.7002 -19.8994 -13.9004 -31.3994 -18.2002c-5.5 -2 -11.7002 0.200195 -14.7002 5.2998
l-8 13.9004c-10.2002 -1.90039 -20.7002 -1.90039 -30.9004 0l-8 -13.9004c-2.89941 -5.19922 -9.2002 -7.39941 -14.7002 -5.2998c-11.5 4.2998 -22.0996 10.5 -31.3994 18.2002c-4.5 3.7002 -5.60059 10.2002 -2.7002 15.2998l8 13.9004
c-6.7002 7.7998 -12 16.8994 -15.5 26.7998h-16.0996c-5.90039 0 -10.9004 4.2002 -11.9004 10c-1.90039 11.7002 -2 24 0 36.2002c0.900391 5.89941 6 10.2002 11.9004 10.2002h16.0996c3.5 9.89941 8.7998 19 15.5 26.7998l-8 13.8994
c-3 5.10059 -1.7998 11.6006 2.7002 15.3008c9.2998 7.69922 19.8994 13.8994 31.3994 18.1992c5.5 2 11.7002 -0.199219 14.7002 -5.2998l8 -13.8994c10.2002 1.89941 20.7002 1.89941 30.9004 0l8 13.8994c2.89941 5.2002 9.2002 7.40039 14.7002 5.2998
c11.5 -4.2998 22.0996 -10.5 31.3994 -18.1992c4.5 -3.7002 5.60059 -10.2002 2.7002 -15.3008l-8 -13.8994c6.7002 -7.7998 12 -16.9004 15.5 -26.7998h16.0996c5.90039 0 10.9004 -4.2002 11.9004 -10zM530.7 7.2002c17.7002 0 32 14.2998 32 32s-14.2998 32 -32 32
s-32 -14.2998 -32 -32s14.2998 -32 32 -32z" />
    <glyph glyph-name="comments" unicode="&#xf086;" horiz-adv-x="576" 
d="M532 61.7998c15.2998 -30.7002 37.4004 -54.5 37.7998 -54.7998c6.2998 -6.7002 8 -16.5 4.40039 -25c-3.7002 -8.5 -12 -14 -21.2002 -14c-53.5996 0 -96.7002 20.2998 -125.2 38.7998c-19 -4.39941 -39 -6.7998 -59.7998 -6.7998
c-86.2002 0 -159.9 40.4004 -191.3 97.7998c-9.7002 1.2002 -19.2002 2.7998 -28.4004 4.90039c-28.5 -18.6006 -71.7002 -38.7998 -125.2 -38.7998c-9.19922 0 -17.5996 5.5 -21.1992 14c-3.7002 8.5 -1.90039 18.2998 4.39941 25
c0.400391 0.399414 22.4004 24.1992 37.7002 54.8994c-27.5 27.2002 -44 61.2002 -44 98.2002c0 88.4004 93.0996 160 208 160c86.2998 0 160.3 -40.5 191.8 -98.0996c99.7002 -11.8008 176.2 -77.9004 176.2 -157.9c0 -37.0996 -16.5 -71.0996 -44 -98.2002zM139.2 154.1
l19.7998 -4.5c16 -3.69922 32.5 -5.59961 49 -5.59961c86.7002 0 160 51.2998 160 112s-73.2998 112 -160 112s-160 -51.2998 -160 -112c0 -28.7002 16.2002 -50.5996 29.7002 -64l24.7998 -24.5l-15.5 -31.0996c-2.59961 -5.10059 -5.2998 -10.1006 -8 -14.8008
c14.5996 5.10059 29 12.3008 43.0996 21.4004zM498.3 96c13.5 13.4004 29.7002 35.2998 29.7002 64c0 49.2002 -48.2998 91.5 -112.7 106c0.299805 -3.2998 0.700195 -6.59961 0.700195 -10c0 -80.9004 -78 -147.5 -179.3 -158.3
c29.0996 -29.6006 77.2998 -49.7002 131.3 -49.7002c16.5 0 33 1.90039 49 5.59961l19.9004 4.60059l17.0996 -11.1006c14.0996 -9.09961 28.5 -16.2998 43.0996 -21.3994c-2.69922 4.7002 -5.39941 9.7002 -8 14.7998l-15.5 31.0996z" />
    <glyph glyph-name="star-half" unicode="&#xf089;" horiz-adv-x="576" 
d="M288 62.7002v-54.2998l-130.7 -68.6006c-23.3994 -12.2998 -50.8994 7.60059 -46.3994 33.7002l25 145.5l-105.7 103c-19 18.5 -8.5 50.7998 17.7002 54.5996l146.1 21.2002l65.2998 132.4c5.90039 11.8994 17.2998 17.7998 28.7002 17.7998v-68.0996l-62.2002 -126
l-139 -20.2002l100.601 -98l-23.7002 -138.4z" />
    <glyph glyph-name="sign-out" unicode="&#xf08b;" 
d="M96 384h84c6.59961 0 12 -5.40039 12 -12v-24c0 -6.59961 -5.40039 -12 -12 -12h-84c-26.5 0 -48 -21.5 -48 -48v-192c0 -26.5 21.5 -48 48 -48h84c6.59961 0 12 -5.40039 12 -12v-24c0 -6.59961 -5.40039 -12 -12 -12h-84c-53 0 -96 43 -96 96v192c0 53 43 96 96 96z
M327.1 364.5c4.7002 4.7002 12.3008 4.7002 17 0.0996094l164.4 -164c4.7002 -4.69922 4.7002 -12.2998 0 -17l-164.4 -164c-4.69922 -4.69922 -12.2998 -4.69922 -17 0l-19.5996 19.6006c-4.7002 4.7002 -4.59961 12.3994 0.200195 17.0996l113.1 109.7h-248.8
c-6.59961 0 -12 5.40039 -12 12v28c0 6.59961 5.40039 12 12 12h248.8l-113.1 109.8c-4.90039 4.60059 -5 12.2998 -0.200195 17.1006z" />
    <glyph glyph-name="thumbtack" unicode="&#xf08d;" horiz-adv-x="384" 
d="M306.5 261.4c47.9004 -32.8008 77.5 -84.1006 77.5 -141.4c0 -13.2002 -10.7998 -24 -24 -24h-144v-104c0 -0.799805 -0.0996094 -1.7002 -0.400391 -2.5l-16 -48c-2.39941 -7.2998 -12.7998 -7.2998 -15.1992 0l-16 48
c-0.300781 0.799805 -0.400391 1.59961 -0.400391 2.5v104h-144c-13.2002 0 -24 10.7998 -24 24c0 57.2998 29.5996 108.6 77.5 141.4l5.7002 42.5996h-27.2002c-13.2002 0 -24 10.7998 -24 24v96c0 13.2002 10.7998 24 24 24h272c13.2002 0 24 -10.7998 24 -24v-96
c0 -13.2002 -10.7998 -24 -24 -24h-27.2002zM50.5 144h283c-8.2998 38.4004 -35.7002 70 -71.5 87.7998l-16 120.2h58v48h-224v-48h58l-16 -120.2c-35.9004 -17.7998 -63.2002 -49.2998 -71.5 -87.7998z" />
    <glyph glyph-name="external-link" unicode="&#xf08e;" horiz-adv-x="576" 
d="M576 433.6l-0.173828 -163.199c0 -7.95312 -6.44727 -14.4004 -14.4004 -14.4004h-33.3057c-8.06738 0 -14.5605 6.62598 -14.3975 14.6914l2.71777 73.627l-2.0625 2.06152l-278.863 -278.865c-4.68555 -4.68555 -12.2832 -4.68555 -16.9707 0l-23.0293 23.0293
c-4.68555 4.68652 -4.68555 12.2842 0 16.9707l278.864 278.864l-2.06152 2.0625l-73.626 -2.71777c-8.06543 -0.164062 -14.6914 6.33008 -14.6914 14.3975v33.3047c0 7.95312 6.44727 14.4004 14.4004 14.4004l163.199 0.173828
c7.95312 0 14.4004 -6.44727 14.4004 -14.4004zM427.515 214.26c7.55957 7.56055 20.4854 2.20605 20.4854 -8.48438v-221.775c0 -26.5098 -21.4902 -48 -48 -48h-352c-26.5098 0 -48 21.4902 -48 48v352c0 26.5098 21.4902 48 48 48h283.976
c2.74414 0 6.54492 -1.5752 8.48535 -3.51465l24 -24c7.56055 -7.55957 2.20605 -20.4854 -8.48535 -20.4854h-301.976c-3.31152 0 -6 -2.68848 -6 -6v-340c0 -3.31152 2.68848 -6 6 -6h340c3.31152 0 6 2.68848 6 6v191.775c0 2.74316 1.5752 6.54492 3.51465 8.48438z" />
    <glyph glyph-name="sign-in" unicode="&#xf090;" 
d="M416 0h-84c-6.59961 0 -12 5.40039 -12 12v24c0 6.59961 5.40039 12 12 12h84c26.5 0 48 21.5 48 48v192c0 26.5 -21.5 48 -48 48h-84c-6.59961 0 -12 5.40039 -12 12v24c0 6.59961 5.40039 12 12 12h84c53 0 96 -43 96 -96v-192c0 -53 -43 -96 -96 -96zM167.1 364.5
c4.7002 4.7002 12.3008 4.7002 17 0.0996094l164.4 -164c4.7002 -4.69922 4.7002 -12.2998 0 -17l-164.4 -164c-4.69922 -4.69922 -12.2998 -4.69922 -17 0l-19.5996 19.6006c-4.7002 4.7002 -4.59961 12.3994 0.200195 17.0996l113.1 109.7h-248.8
c-6.59961 0 -12 5.40039 -12 12v28c0 6.59961 5.40039 12 12 12h248.8l-113.1 109.8c-4.90039 4.60059 -5 12.2998 -0.200195 17.1006z" />
    <glyph glyph-name="trophy" unicode="&#xf091;" horiz-adv-x="576" 
d="M448 384h112c8.7998 0 16 -7.2002 16 -16v-60.7998c0 -60.4004 -68.5 -125.3 -159.6 -142.601c-27.4004 -57.8994 -68.1006 -88.0996 -104.4 -97.3994v-83.2002h64c22.0996 0 40 -17.9004 40 -40c0 -4.40039 -3.59961 -8 -8 -8h-240c-4.40039 0 -8 3.59961 -8 8
c0 22.0996 17.9004 40 40 40h64v83.2002c-36.2998 9.2002 -77 39.5 -104.4 97.3994c-91.2998 17.4004 -159.6 82.3008 -159.6 142.601v60.7998c0 8.7998 7.2002 16 16 16h112v48c0 8.7998 7.2002 16 16 16h288c8.7998 0 16 -7.2002 16 -16v-48zM48 307.2
c0 -29.1006 37.2002 -69.1006 92.2998 -88c-10.2002 40.5996 -12.2998 77.5996 -12.2998 116.8h-80v-28.7998zM288 112c51.2002 0 112 75.5 112 216v72h-224v-72c0 -137.6 59 -216 112 -216zM528 307.2v28.7998h-80c0 -39.0996 -2.09961 -76.2002 -12.2998 -116.8
c55.0996 18.8994 92.2998 58.8994 92.2998 88z" />
    <glyph glyph-name="upload" unicode="&#xf093;" horiz-adv-x="576" 
d="M528 160c26.5 0 48 -21.5 48 -48v-128c0 -26.5 -21.5 -48 -48 -48h-480c-26.5 0 -48 21.5 -48 48v128c0 26.5 21.5 48 48 48h144v32h-64c-42.7002 0 -64.0996 51.7998 -34 81.9004l160 160c18.7998 18.6992 49.0996 18.7998 67.9004 0l160 -160
c30.2998 -30.2002 8.69922 -81.9004 -33.9004 -81.9004h-64v-32h144zM128 240h112v-160h96v160h112l-160 160zM528 -16v128h-144v-32c0 -26.5 -21.5 -48 -48 -48h-96c-26.5 0 -48 21.5 -48 48v32h-144v-128h480zM488 48c0 -13.2998 -10.7002 -24 -24 -24s-24 10.7002 -24 24
s10.7002 24 24 24s24 -10.7002 24 -24z" />
    <glyph glyph-name="lemon" unicode="&#xf094;" 
d="M484.112 420.111c28.1221 -28.123 35.9434 -68.0039 19.0215 -97.0547c-23.0576 -39.584 50.1436 -163.384 -82.3311 -295.86c-132.301 -132.298 -256.435 -59.3594 -295.857 -82.3291c-29.0459 -16.917 -68.9219 -9.11426 -97.0576 19.0205
c-28.1221 28.1221 -35.9434 68.0029 -19.0215 97.0547c23.0566 39.5859 -50.1436 163.386 82.3301 295.86c132.308 132.309 256.407 59.3496 295.862 82.332c29.0498 16.9219 68.9307 9.09863 97.0537 -19.0234zM461.707 347.217
c13.5166 23.2031 -27.7578 63.7314 -50.4883 50.4912c-66.6025 -38.7939 -165.646 45.5898 -286.081 -74.8457c-120.444 -120.445 -36.0449 -219.472 -74.8447 -286.08c-13.542 -23.2471 27.8145 -63.6953 50.4932 -50.4883
c66.6006 38.7949 165.636 -45.5996 286.076 74.8428c120.444 120.445 36.0449 219.472 74.8447 286.08zM291.846 338.481c1.37012 -10.96 -6.40332 -20.957 -17.3643 -22.3271c-54.8467 -6.85547 -135.779 -87.7871 -142.636 -142.636
c-1.37305 -10.9883 -11.3984 -18.7334 -22.3262 -17.3643c-10.9609 1.37012 -18.7344 11.3652 -17.3643 22.3262c9.16211 73.2852 104.167 168.215 177.364 177.364c10.9531 1.36816 20.9561 -6.40234 22.3262 -17.3633z" />
    <glyph glyph-name="phone" unicode="&#xf095;" 
d="M476.5 425.1c20.9004 -4.7998 35.5 -23.1992 35.5 -44.5996c0 -246.2 -199.7 -444.5 -444.6 -444.4c-21.4004 0 -39.8008 14.6006 -44.6006 35.5l-21.7002 94.2002c-4.89941 21.6006 6.2002 43.6006 26.6006 52.2998l101.6 43.5
c18.6006 8 40.6006 2.60059 53.4004 -13.0996l32.7002 -40c52.3994 28.5 95.5996 71.7002 124.199 124.1l-40 32.7002c-15.6992 12.7998 -21.0996 34.7998 -13.0996 53.4004l43.5 101.5c8.7002 20.3994 30.7002 31.5996 52.2998 26.5996zM69.2998 -16
c217.601 1 393.7 177.1 394.7 394.7l-90.7002 20.8994l-42.0996 -98.1992l68.0996 -55.7002c-46.3994 -99 -98.2002 -150.601 -197 -197l-55.7002 68.0996l-98.1992 -42.0996z" />
    <glyph glyph-name="phone-square" unicode="&#xf098;" horiz-adv-x="448" 
d="M400 416c26.5098 0 48 -21.4902 48 -48v-352c0 -26.5098 -21.4902 -48 -48 -48h-352c-26.5098 0 -48 21.4902 -48 48v352c0 26.5098 21.4902 48 48 48h352zM394 16c3.31152 0 6 2.68848 6 6v340c0 3.31152 -2.68848 6 -6 6h-340c-3.31152 0 -6 -2.68848 -6 -6v-340
c0 -3.31152 2.68848 -6 6 -6h340zM352 296c0 -128.234 -103.956 -232 -232 -232c-5.26855 0.000976562 -10.5068 4.16895 -11.6934 9.30176l-11.999 52c-0.168945 0.735352 -0.306641 1.94434 -0.306641 2.69824c0 4.36816 3.25781 9.30957 7.27344 11.0303l55.999 23.999
c1.24902 0.535156 3.36719 0.969727 4.72656 0.969727c3.13965 0 7.2998 -1.97168 9.28809 -4.40137l24.7979 -30.3076c39.1553 18.3701 70.6377 50.2871 88.624 88.624l-30.3086 24.7979c-2.42969 1.98828 -4.40137 6.14844 -4.40137 9.28809
c0 1.35938 0.43457 3.47754 0.969727 4.72656l24 55.999c1.7207 4.01562 6.66211 7.27344 11.0303 7.27344c0.753906 0 1.96289 -0.137695 2.69824 -0.306641l52 -11.999c5.13477 -1.18555 9.30176 -6.42383 9.30176 -11.6934v0z" />
    <glyph glyph-name="unlock" unicode="&#xf09c;" horiz-adv-x="448" 
d="M400 208c26.5 0 48 -21.5 48 -48v-176c0 -26.5 -21.5 -48 -48 -48h-352c-26.5 0 -48 21.5 -48 48v176c0 26.5 21.5 48 48 48h32v96c0 79.5 64.7998 144.2 144.3 144c79.7002 -0.200195 143.7 -65.7998 143.7 -145.4v-22.5996c0 -13.2998 -10.7002 -24 -24 -24
s-24 10.7002 -24 24v24c0 53.2998 -43.5996 96.5996 -97 96c-52.9004 -0.5 -95 -44.4004 -95 -97.2002v-94.7998h272zM400 -16v176h-352v-176h352z" />
    <glyph glyph-name="credit-card" unicode="&#xf09d;" horiz-adv-x="576" 
d="M527.9 416c26.5996 0 48.0996 -21.5 48.0996 -48v-352c0 -26.5 -21.5 -48 -48.0996 -48h-479.801c-26.5996 0 -48.0996 21.5 -48.0996 48v352c0 26.5 21.5 48 48.0996 48h479.801zM54.0996 368c-3.2998 0 -6 -2.7002 -6 -6v-42h479.801v42c0 3.2998 -2.7002 6 -6 6
h-467.801zM521.9 16c3.2998 0 6 2.7002 6 6v170h-479.801v-170c0 -3.2998 2.7002 -6 6 -6h467.801zM192 116v-40c0 -6.59961 -5.40039 -12 -12 -12h-72c-6.59961 0 -12 5.40039 -12 12v40c0 6.59961 5.40039 12 12 12h72c6.59961 0 12 -5.40039 12 -12zM384 116v-40
c0 -6.59961 -5.40039 -12 -12 -12h-136c-6.59961 0 -12 5.40039 -12 12v40c0 6.59961 5.40039 12 12 12h136c6.59961 0 12 -5.40039 12 -12z" />
    <glyph glyph-name="rss" unicode="&#xf09e;" horiz-adv-x="448" 
d="M80 80c-17.6445 0 -32 -14.3555 -32 -32s14.3555 -32 32 -32s32 14.3555 32 32s-14.3555 32 -32 32zM80 128c44.1826 0 80 -35.8174 80 -80s-35.8174 -80 -80 -80s-80 35.8174 -80 80s35.8174 80 80 80zM447.996 -19.6152
c0.182617 -6.77539 -5.22363 -12.3848 -12.0039 -12.3838h-24.0205c-6.48145 0 -11.8066 5.14746 -11.9912 11.626c-6.03809 211.619 -176.379 382.314 -388.354 388.354c-6.47852 0.183594 -11.626 5.50977 -11.626 11.9912v24.0205
c0 6.77832 5.60938 12.1855 12.3857 12.002c237.554 -6.44727 429.161 -197.776 435.61 -435.61zM311.757 -19.5654c0.266602 -6.79199 -5.20117 -12.4346 -11.998 -12.4355h-24.0234c-6.43164 0 -11.7051 5.07227 -11.9805 11.4971
c-5.84668 136.747 -115.49 246.411 -252.258 252.258c-6.4248 0.275391 -11.4971 5.54883 -11.4971 11.9805v24.0234c0 6.79785 5.64258 12.2656 12.4346 11.999c162.531 -6.35547 292.967 -136.767 299.322 -299.322z" />
    </font>
</defs>
</svg>
